Таксандрия / Taxandria (Рауль Сервэ / Raoul Servais) [1994, Бельгия, Германия, Франция, Фэнтази, DVDRip] VO + Sub Rus + Original Eng


 

[Цитировать]

Таксандрия / Taxandria
Страна: Бельгия, Германия, Франция
Жанр: Фэнтези
Год выпуска: 1994
Продолжительность: 01:19:00
Перевод: Одноголосый закадровый
Cубтитры: русские
Оригинальная аудиодорожка: английский
Режиссер: Рауль Сервэ / Raoul Servais
В ролях: Армин Мюллер-Шталь, Ричард Кэттэн, Эллиотт Спирс, Дэниэл Эмилфок (Кранк из "Города Потерянных Детей")
Описание: Юный принц со своим учителем останавливаются в пустом приморском отеле, чтобы спокойно позаниматься перед экзаменами. Вокруг то и дело происходят необъяснимые погони, одна группа людей пытается отловить другую, и становится понятно, что это как-то связано со стоящим неподалеку маяком, на территорию которого попадает принц, прогуливаясь по пляжу. Познакомившись со смотрителем маяка он открывает для себя еще более ирреальную страну, за жизнью которой можно наблюдать сквозь свет прожектора на маяке. В этой стране остановилось время в тот момент, когда природный катаклизм готов был стереть ее с лица Земли. Но жизнь в ней продолжается, образовавшийся монархический строй с трогательной заботой опекает спокойствие и процветание граждан, а наивный молодой помощник наборщика газеты "Вечное Сейчас", вдруг становится главной угрозой обществу.
Доп. информация: Фильм взят отсюда http://teatrix.ru/viewtopic.php?t=5163
Сэмпл: http://multi-up.com/991143
Качество видео: DVDRip
Формат видео: AVI
Видео: 528x400 (1.32:1), 25 fps, XviD Final 1.1 (build 41) ~1130 kbps avg, 0.21 bit/pixel
Аудио 1: 44.100 kHz, MPEG Layer 3, 2 ch, ~95.87 kbps avg(Русский)
Аудио 2: 32 kHz, MPEG Layer 3, 2 ch, ~96.00 kbps avg(Английский)
Формат субтитров: softsub (SRT)
Доп. информация о субтитрах: Русские внешние (bambaladam)

MediaInfo

Общее
Полное имя : F:\С моей озвучкой\Таксандрия\Taxandria.1994.avi
Формат : AVI
Формат/Информация : Audio Video Interleave
Размер файла : 759 Мбайт
Продолжительность : 1 ч. 19 м.
Общий поток : 1338 Кбит/сек
Программа кодирования : VirtualDubModRus 1.5.10.2 (build 2542/release)
Библиотека кодирования : VirtualDubMod build 2542/release
Видео
Идентификатор : 0
Формат : MPEG-4 Visual
Профиль формата : Advanced Simple@L5
Параметр BVOP формата : 1
Параметр QPel формата : Нет
Параметр GMC формата : Без точки перехода
Параметр матрицы формата : Выборочная
Идентификатор кодека : XVID
Идентификатор кодека/Подсказка : XviD
Продолжительность : 1 ч. 19 м.
Битрейт : 1131 Кбит/сек
Ширина : 528 пикселей
Высота : 400 пикселей
Соотношение сторон : 4:3
Частота кадров : 25,000 кадров/сек
Цветовое пространство : YUV
Субдискретизация насыщенности : 4:2:0
Битовая глубина : 8 бит
Тип развёртки : Прогрессивная
Метод сжатия : С потерями
Бит/(Пиксели*Кадры) : 0.214
Размер потока : 642 Мбайт (85%)
Библиотека кодирования : XviD 1.1.0 (UTC 2005-11-22)
Аудио #1
Идентификатор : 1
Формат : MPEG Audio
Версия формата : Version 1
Профиль формата : Layer 3
Режим : Joint stereo
Расширение режима : MS Stereo
Идентификатор кодека : 55
Идентификатор кодека/Подсказка : MP3
Продолжительность : 1 ч. 19 м.
Вид битрейта : Постоянный
Битрейт : 96,0 Кбит/сек
Каналы : 2 канала
Частота : 44,1 КГц
Метод сжатия : С потерями
Размер потока : 54,4 Мбайт (7%)
Выравнивание : Соединение по промежуткам
Продолжительность промежутка : 40 мс. (1,00 видеокадр)
Время предзагрузки промежутка : 522 мс.
Библиотека кодирования : LAME3.96
Язык : English
Аудио #2
Идентификатор : 2
Формат : MPEG Audio
Версия формата : Version 1
Профиль формата : Layer 3
Режим : Joint stereo
Расширение режима : MS Stereo
Идентификатор кодека : 55
Идентификатор кодека/Подсказка : MP3
Продолжительность : 1 ч. 19 м.
Вид битрейта : Постоянный
Битрейт : 96,0 Кбит/сек
Каналы : 2 канала
Частота : 32,0 КГц
Метод сжатия : С потерями
Размер потока : 54,5 Мбайт (7%)
Выравнивание : Соединение по промежуткам
Продолжительность промежутка : 40 мс. (1,00 видеокадр)
Время предзагрузки промежутка : 504 мс.
Библиотека кодирования : LAME3.97b
Настройки программы : -m j -V 4 -q 2 -lowpass 15.1 -b 96

Скриншоты




Показать сообщения:    

Текущее время: 05-Дек 15:32

Часовой пояс: UTC + 3


Вы не можете начинать темы
Вы не можете отвечать на сообщения
Вы не можете редактировать свои сообщения
Вы не можете удалять свои сообщения
Вы не можете голосовать в опросах
Вы не можете прикреплять файлы к сообщениям
Вы не можете скачивать файлы