Женитьба (Марк Захаров) [2009, комедия, DVB] Московский театр "Ленком"


 

[Цитировать]

Женитьба
Запись сделана и любезно предоставлена коллегой ItarTass
Название театра: Московский театр "Ленком"
Жанр: комедия
Год выпуска: 2009
Продолжительность: 00:57:45 + 01:04:22
Режиссёр: Марк Захаров
В ролях: Александра Захарова, Инна Чурикова, Виктор Раков, Леонид Броневой, Александр Збруев, Олег Янковский, Иван Агапов, Игорь Фокин
Описание: В комедии о незадачливом женихе Подколесине, сбежавшем от невесты в окно, и разборчивой невесте Агафье Тихоновне, которая никак не может выбрать подходящего мужа, Марк Захаров увидел историю человека, который что-то хочет поменять в своей жизни, но не способен на поступок. По мнению режиссера, Гоголь разгадал это свойство российского человека.
Доп. информация:
Запись потока *.ts со спутника Ямал 202, 49° в.д., ремукс в *.mpg программой VideoReDo.
Качество видео: DVB
Формат видео: MPEG-PS
Видео: MPEG2 Video, 720x576 (4:3), 25,000 кадров/сек, 5084 Кбит/сек
Аудио: MPEG Audio, 48,0 КГц, 256 Кбит/сек, 2 канала

MediaInfo

Общее
Полное имя : D:\Torrent\ЖЕНИТЬБА 2009\Женитьба (2009)(DVB)Kultura часть 1.mpg
Формат : MPEG-PS
Размер файла : 2,20 Гбайт
Продолжительность : 57 м.
Режим общего битрейта : Переменный
Общий поток : 5448 Кбит/сек
Видео
Идентификатор : 224 (0xE0)
Формат : MPEG Video
Версия формата : Version 2
Профиль формата : Main@Main
Параметр BVOP формата : Да
Параметр матрицы формата : Выборочная
Параметр GOP формата : M=3, N=15
Продолжительность : 57 м.
Вид битрейта : Переменный
Битрейт : 5084 Кбит/сек
Максимальный битрейт : 15,0 Мбит/сек
Ширина : 720 пикселей
Высота : 576 пикселей
Соотношение сторон : 4:3
Частота кадров : 25,000 кадров/сек
Стандарт вещания : PAL
Цветовое пространство : YUV
Субдискретизация насыщенности : 4:2:0
Битовая глубина : 8 бит
Тип развёртки : Чересстрочная
Порядок развёртки : Верхнее поле первое
Метод сжатия : С потерями
Бит/(Пиксели*Кадры) : 0.490
Временной код первого кадра : 00:00:00:00
Оригинал временного кода : Group of pictures header
Размер потока : 2,05 Гбайт (93%)
Аудио
Идентификатор : 192 (0xC0)
Формат : MPEG Audio
Версия формата : Version 1
Профиль формата : Layer 2
Продолжительность : 57 м.
Вид битрейта : Постоянный
Битрейт : 256 Кбит/сек
Каналы : 2 канала
Частота : 48,0 КГц
Метод сжатия : С потерями
Размер потока : 106 Мбайт (5%)
Общее
Полное имя : D:\Torrent\ЖЕНИТЬБА 2009\Женитьба (2009)(DVB)Kultura часть 2.mpg
Формат : MPEG-PS
Размер файла : 2,45 Гбайт
Продолжительность : 1 ч. 4 м.
Режим общего битрейта : Переменный
Общий поток : 5448 Кбит/сек
Видео
Идентификатор : 224 (0xE0)
Формат : MPEG Video
Версия формата : Version 2
Профиль формата : Main@Main
Параметр BVOP формата : Да
Параметр матрицы формата : Выборочная
Параметр GOP формата : M=3, N=15
Продолжительность : 1 ч. 4 м.
Вид битрейта : Переменный
Битрейт : 5084 Кбит/сек
Максимальный битрейт : 15,0 Мбит/сек
Ширина : 720 пикселей
Высота : 576 пикселей
Соотношение сторон : 4:3
Частота кадров : 25,000 кадров/сек
Стандарт вещания : PAL
Цветовое пространство : YUV
Субдискретизация насыщенности : 4:2:0
Битовая глубина : 8 бит
Тип развёртки : Чересстрочная
Порядок развёртки : Верхнее поле первое
Метод сжатия : С потерями
Бит/(Пиксели*Кадры) : 0.490
Временной код первого кадра : 00:00:00:00
Оригинал временного кода : Group of pictures header
Размер потока : 2,29 Гбайт (93%)
Аудио
Идентификатор : 192 (0xC0)
Формат : MPEG Audio
Версия формата : Version 1
Профиль формата : Layer 2
Продолжительность : 1 ч. 4 м.
Вид битрейта : Постоянный
Битрейт : 256 Кбит/сек
Каналы : 2 канала
Частота : 48,0 КГц
Метод сжатия : С потерями
Размер потока : 118 Мбайт (5%)

Скриншот с названием постановки




Показать сообщения:    

Текущее время: 08-Дек 05:18

Часовой пояс: UTC + 3


Вы не можете начинать темы
Вы не можете отвечать на сообщения
Вы не можете редактировать свои сообщения
Вы не можете удалять свои сообщения
Вы не можете голосовать в опросах
Вы не можете прикреплять файлы к сообщениям
Вы не можете скачивать файлы