Карл Мария фон Вебер - Вольный стрелок / Carl Maria von Weber - Der Freischutz / Hunter's Bride (Konig, Banse, Volle, Muhlemann, Harding, Neubert) [2011, opera-film, DVB-AVC] DVO+Sub (Культура)


 

[Цитировать]

Карл Мария фон Вебер - Вольный стрелок Carl / Maria von Weber - Der Freischutz / Hunter's Bride
Год выпуска: 2011
Жанр: opera-film
Продолжительность: 02:13:07
Язык: немецкий
Перевод: субтитры + двухголосный DVO для диалогов (Культура)
Субтитры: русские вшитые (hardsub)
Режиссер: JENS NEUBERT
Дирижер: SIMON HALSEY
Исполнители:
Prince Ottokar FRANZ GRUNDHEBER
Kuno BENNO SCHOLLUM
Agathe JULIANE BANSE
Ännchen REGULA MÜHLEMANN
Kaspar MICHAEL VOLLE
Max MICHAEL KÖNIG
Hermit RENÉ PAPE
Kilian OLAF BÄR
LONDON SYMPHONY ORCHESTRA
Conducted by DANIEL HARDING
RUNDFUNKCHOR BERLIN
Conducted by SIMON HALSEY
Описание: Hunter's Bride is a film opera based on the romantic opera Der Freischütz by Carl Maria von Weber. Dreams and hopes of young people are told in this exquisite fairy tale. Max and Kaspar, both hunters, fight side by side in the Napoleonic Wars, as well as each other to conquer Agathe's love. European cultural history becomes visible in an opulent historical panorama and one of the most beautiful pieces of music. The pictures of Norwegian director of photography Harald Gunnar Paalgard give a spatial dimension to the unique sound of the London Symphony Orchestra, which recorded in the legendary Abbey Road Studios. Performed by renowned opera soloists Juliane Banse, Michael König, Michael Volle, René Pape the fi lm opera was a huge public success in European theatres. Filmed on 35mm fi lm on original locations in Germany, the film opera dramatises the enchanted tale with stunning images, and surround-sound revives the music for the eyes and the ears of the audience.
Качество видео: DVB-AVC
Формат/Контейнер: MKV
Видео кодек: H.264
Аудио кодек: MP2
Видео поток: 720x576 (4:3) 50fps 1009Kbps
Аудио поток: 48000Hz 2 ch mono 160 Kbps

MI

Format : Matroska
Format version : Version 4 / Version 2
File size : 1.26 GiB
Duration : 2h 13mn
Overall bit rate mode : Constant
Overall bit rate : 1 356 Kbps
Encoded date : UTC 2014-08-13 12:08:47
Writing application : mkvmerge v6.1.0 ('Old Devil') built on Mar 4 2013 09:10:42
Writing library : libebml v1.3.0 + libmatroska v1.4.0
Video
ID : 1
Format : AVC
Format/Info : Advanced Video Codec
Format profile : Main@L3.0
Format settings, CABAC : Yes
Format settings, ReFrames : 3 frames
Format settings, GOP : M=3, N=25
Codec ID : V_MPEG4/ISO/AVC
Duration : 2h 13mn
Bit rate mode : Constant
Bit rate : 1 169 Kbps
Nominal bit rate : 1 300 Kbps
Width : 720 pixels
Height : 576 pixels
Display aspect ratio : 4:3
Frame rate mode : Constant
Frame rate : 25.000 fps
Standard : PAL
Color space : YUV
Chroma subsampling : 4:2:0
Bit depth : 8 bits
Scan type : Interlaced
Scan order : Top Field First
Bits/(Pixel*Frame) : 0.113
Stream size : 1.09 GiB (86%)
Default : Yes
Forced : No
Color primaries : BT.601 PAL
Transfer characteristics : BT.470 System B, BT.470 System G
Matrix coefficients : BT.601
Audio
ID : 2
Format : MPEG Audio
Format version : Version 1
Format profile : Layer 2
Codec ID : A_MPEG/L2
Codec ID/Hint : MP2
Duration : 2h 13mn
Bit rate mode : Constant
Bit rate : 160 Kbps
Channel(s) : 2 channels
Sampling rate : 48.0 KHz
Compression mode : Lossy
Delay relative to video : 5ms
Stream size : 152 MiB (12%)
Default : Yes
Forced : No

Скриншоты




Показать сообщения:    

Текущее время: 07-Дек 00:55

Часовой пояс: UTC + 3


Вы не можете начинать темы
Вы не можете отвечать на сообщения
Вы не можете редактировать свои сообщения
Вы не можете удалять свои сообщения
Вы не можете голосовать в опросах
Вы не можете прикреплять файлы к сообщениям
Вы не можете скачивать файлы