Кристоф Виллибальд Глюк - Орфей и Эвридика / Gluck - Orfeo ed Euridice (Mehta, Liebau, Muhlemann) Вацлав Лукс / Vaclav Luks (Ondrej Havelka) [2014, Opera, BDRip-AVC 720p] [Русские субтитры + Eng, Fre, Ger, Spa, Ita. Sub's]


 

[Цитировать]

-Барочный театр Замка Чески-Крумлов представляет
КРИСТОФ Виллибальд Г Л Ю К
2 июля (July 2,) 1714 — 15 ноября (November 15,) 1878
»«ОРФЕЙ и ЭВРИДИКА»«
Либретто по-итальянски Раньеро да Кальцабиджи, основанное на греческой мифологии
-- Год записи/выхода: 2014
•••
Лейбл: Unitel, ORF & Czech TV
Жанр: Opera
Продолжительность: 105 min.
Язык: Итальянский
Субтитры/Subtitles: РУССКИЕ,
English, German, French, Italian, Spanish
в составе контейнера
•••
Качество видео: BDRip-AVC
♫ Sample ♫
Исходник: Blu-ray 1080i | hdclub |
Формат/Контейнер: MKV
Видео кодек: H.264
Аудио кодек: DTS
Видео поток: 1280x720, 3813 kbps, 29,970 fps.
Аудио поток: Italiano, 1509 kbps, 48,0 KHz, 6 ch
(оригинальный)
•••
Постановка: ЯН МАЛИРЖ
Jan Malíř
Автор сценария и режиссёр: ОНДРЖЕЙ ГАВЕЛКА
Ondřej Havelka
Художник по костюмам: ЯНА ЗБОРЖИЛОВА
Jana Zbořilová
-

Действующие лица и исполнители


БЕЙДЖУН МЕТАОрфей (Orfeo) Bejun Mehta
ЕВА ЛИБАУ Эвридика (Euridice) Eva Liebau
РЕГУЛА МЮЛЕМАНН Амур (Amore) Regula Mühlemann
•••
ПРАЖСКИЙ БАРОЧНЫЙ ОРКЕСТР «Collegium 1704»
Prague baroque orchestra Collegium 1704
Дирижёр: ВАЦЛАВ ЛУКС
Václav Luks
Хореограф: АНДРЕА МИЛТНЕРОВА
Andrea Miltnerova

Скриншоты

MediaInfo

-

x264 log


avs [info]: 1280x720p 479:480 @ 10000000/333667 fps (cfr)
x264 [info]: using SAR=479/480
x264 [info]: using cpu capabilities: MMX2 SSE2Fast SSEMisalign LZCNT
x264 [info]: profile High, level 4.1
x264 [info]: frame I:822 Avg QP:15.68 size: 96396
x264 [info]: frame P:26739 Avg QP:16.91 size: 35712
x264 [info]: frame B:107314 Avg QP:19.33 size: 10351
x264 [info]: consecutive B-frames: 0.9% 0.8% 5.4% 18.5% 12.7% 56.2% 5.5%
x264 [info]: mb I I16..4: 6.2% 80.4% 13.3%
x264 [info]: mb P I16..4: 1.3% 12.1% 1.3% P16..4: 31.1% 37.3% 11.6% 0.0% 0.0% skip: 5.3%
x264 [info]: mb B I16..4: 0.3% 0.8% 0.1% B16..8: 33.8% 17.8% 2.1% direct: 5.4% skip:39.8% L0:41.6% L1:45.0% BI:13.4%
x264 [info]: 8x8 transform intra:79.3% inter:58.8%
x264 [info]: coded y,uvDC,uvAC intra: 78.6% 81.1% 63.7% inter: 19.1% 21.0% 3.8%
x264 [info]: i16 v,h,dc,p: 43% 14% 5% 38%
x264 [info]: i8 v,h,dc,ddl,ddr,vr,hd,vl,hu: 11% 7% 11% 9% 12% 14% 11% 13% 12%
x264 [info]: i4 v,h,dc,ddl,ddr,vr,hd,vl,hu: 16% 8% 18% 7% 11% 12% 9% 10% 9%
x264 [info]: i8c dc,h,v,p: 40% 24% 21% 16%
x264 [info]: Weighted P-Frames: Y:5.7% UV:3.7%
x264 [info]: ref P L0: 50.9% 10.2% 27.2% 11.2% 0.5%
x264 [info]: ref B L0: 86.5% 10.5% 3.0%
x264 [info]: ref B L1: 94.4% 5.6%
x264 [info]: kb/s:3813.06
-
General
Unique ID : 173067023513043571191496323640824355270 (0x82337F0D51889FF3A0264B8AE672D9C6)
Complete name : D:\Gluck - Orfeo ed Euridice (Cesky Krumlov) 2014.mkv
Format : Matroska
Format version : Version 4 / Version 2
File size : 2.79 GiB
Duration : 1h 15mn
Overall bit rate : 5 325 Kbps
Encoded date : UTC 2014-08-13 17:46:29
Writing application : mkvmerge v6.6.0 ('The Edge Of The In Between') built on Dec 1 2013 17:55:00
Writing library : libebml v1.3.0 + libmatroska v1.4.1
Video
ID : 1
Format : AVC
Format/Info : Advanced Video Codec
Format profile : High@L4.1
Format settings, CABAC : Yes
Format settings, ReFrames : 4 frames
Codec ID : V_MPEG4/ISO/AVC
Duration : 1h 15mn
Bit rate : 3 710 Kbps
Width : 1 280 pixels
Height : 720 pixels
Display aspect ratio : 16:9
Original display aspect ratio : 16:9
Frame rate mode : Constant
Frame rate : 29.970 fps
Color space : YUV
Chroma subsampling : 4:2:0
Bit depth : 8 bits
Scan type : Progressive
Bits/(Pixel*Frame) : 0.134
Stream size : 1.94 GiB (70%)
Writing library : x264 core 130 r2273 b3065e6
Encoding settings : cabac=1 / ref=3 / deblock=1:-3:-3 / analyse=0x3:0x113 / me=hex / subme=11 / psy=1 / psy_rd=1.05:0.15 / mixed_ref=1 / me_range=16 / chroma_me=1 / trellis=2 / 8x8dct=1 / cqm=0 / deadzone=21,11 / fast_pskip=1 / chroma_qp_offset=-3 / threads=3 / lookahead_threads=1 / sliced_threads=0 / nr=0 / decimate=1 / interlaced=0 / bluray_compat=0 / constrained_intra=0 / bframes=6 / b_pyramid=2 / b_adapt=2 / b_bias=0 / direct=1 / weightb=1 / open_gop=0 / weightp=2 / keyint=250 / keyint_min=25 / scenecut=40 / intra_refresh=0 / rc=crf / mbtree=0 / crf=18.0 / qcomp=0.65 / qpmin=0 / qpmax=69 / qpstep=4 / ip_ratio=1.40 / pb_ratio=1.30 / aq=1:0.90
Language : English
Default : Yes
Forced : No
Audio
ID : 2
Format : DTS
Format/Info : Digital Theater Systems
Mode : 16
Format settings, Endianness : Big
Codec ID : A_DTS
Duration : 1h 15mn
Bit rate mode : Constant
Bit rate : 1 509 Kbps
Channel(s) : 5 channels
Channel positions : Front: L C R, Side: L R
Sampling rate : 48.0 KHz
Bit depth : 24 bits
Compression mode : Lossy
Stream size : 810 MiB (28%)
Language : Italian
Default : Yes
Forced : No
Text #1
ID : 3
Format : ASS
Codec ID : S_TEXT/ASS
Codec ID/Info : Advanced Sub Station Alpha
Compression mode : Lossless
Language : Russian
Default : Yes
Forced : No
Text #2
ID : 4
Format : UTF-8
Codec ID : S_TEXT/UTF8
Codec ID/Info : UTF-8 Plain Text
Language : Italian
Default : No
Forced : No
Text #3
ID : 5
Format : UTF-8
Codec ID : S_TEXT/UTF8
Codec ID/Info : UTF-8 Plain Text
Language : English
Default : No
Forced : No
Text #4
ID : 6
Format : UTF-8
Codec ID : S_TEXT/UTF8
Codec ID/Info : UTF-8 Plain Text
Language : German
Default : No
Forced : No
Text #5
ID : 7
Format : UTF-8
Codec ID : S_TEXT/UTF8
Codec ID/Info : UTF-8 Plain Text
Language : French
Default : No
Forced : No
Text #6
ID : 8
Format : UTF-8
Codec ID : S_TEXT/UTF8
Codec ID/Info : UTF-8 Plain Text
Language : Spanish
Default : No
Forced : No
-



Показать сообщения:    

Текущее время: 10-Дек 19:40

Часовой пояс: UTC + 3


Вы не можете начинать темы
Вы не можете отвечать на сообщения
Вы не можете редактировать свои сообщения
Вы не можете удалять свои сообщения
Вы не можете голосовать в опросах
Вы не можете прикреплять файлы к сообщениям
Вы не можете скачивать файлы