Verdi - La Traviata / Верди - Травиата ( Mark Elder, Venera Gimadieva, Michael Fabiano, Tassis Christoyannis ) Live at Glyndebourne Festival [2014, opera, HDTVRip-AVC]


 

[Цитировать]

Verdi - La Traviata / Верди - Травиата
Год выпуска: 2014
Жанр: opera
Продолжительность: 2:40:27
Язык: итальянский
Субтитры: english hardsub
Режиссер: Tom Cairns
Дирижер: Mark Elder
Исполнители:
Violetta Valéry - Venera Gimadieva
Alfredo Germont - Michael Fabiano
Giorgio Germont - Tassis Christoyannis
Gastone de Letorières - Emanuele D’Aguanno
Doctor Grenvil - Graeme Broadbent
London Philharmonic Orchestra
The Glyndebourne Chorus
Доп. информация: рип раздачи http://teatrix.ru/viewtopic.php?t=15467
Спасибо, Mauricelugher и Akacha !
Качество видео: HDTVRip-AVC
Формат/Контейнер: MKV
Видео кодек: H.264
Аудио кодек: AC3
Видео поток: 960x540 25fps 1481 Kbps
Аудио поток: 48000Hz 6ch 640 Kbps

MI

Format : Matroska
Format version : Version 2
File size : 141 MiB
Duration : 9mn 4s
Overall bit rate : 2 164 Kbps
Movie name : 1 Intro
Encoded date : UTC 2014-08-15 19:59:29
Writing application : mkvmerge v6.1.0 ('Old Devil') built on Mar 4 2013 09:10:42
Writing library : libebml v1.3.0 + libmatroska v1.4.0
Video
ID : 1
Format : AVC
Format/Info : Advanced Video Codec
Format profile : High@L4.1
Format settings, CABAC : Yes
Format settings, ReFrames : 8 frames
Codec ID : V_MPEG4/ISO/AVC
Duration : 9mn 4s
Bit rate : 1 481 Kbps
Width : 960 pixels
Height : 540 pixels
Display aspect ratio : 16:9
Frame rate mode : Constant
Frame rate : 25.000 fps
Color space : YUV
Chroma subsampling : 4:2:0
Bit depth : 8 bits
Scan type : Progressive
Bits/(Pixel*Frame) : 0.114
Stream size : 96.2 MiB (68%)
Writing library : x264 core 130 r2273 b3065e6
Encoding settings : cabac=1 / ref=8 / deblock=1:-1:-1 / analyse=0x3:0x133 / me=umh / subme=9 / psy=1 / psy_rd=1.00:0.10 / mixed_ref=1 / me_range=24 / chroma_me=1 / trellis=2 / 8x8dct=1 / cqm=0 / deadzone=21,11 / fast_pskip=1 / chroma_qp_offset=-3 / threads=6 / lookahead_threads=1 / sliced_threads=0 / nr=0 / decimate=1 / interlaced=0 / bluray_compat=0 / constrained_intra=0 / bframes=3 / b_pyramid=2 / b_adapt=2 / b_bias=0 / direct=3 / weightb=1 / open_gop=0 / weightp=2 / keyint=250 / keyint_min=25 / scenecut=40 / intra_refresh=0 / rc_lookahead=60 / rc=crf / mbtree=1 / crf=19.0 / qcomp=0.60 / qpmin=0 / qpmax=69 / qpstep=4 / ip_ratio=1.40 / aq=1:1.00
Default : Yes
Forced : No
Audio
ID : 2
Format : AC-3
Format/Info : Audio Coding 3
Mode extension : CM (complete main)
Format settings, Endianness : Big
Codec ID : A_AC3
Duration : 9mn 4s
Bit rate mode : Constant
Bit rate : 640 Kbps
Channel(s) : 6 channels
Channel positions : Front: L C R, Side: L R, LFE
Sampling rate : 48.0 KHz
Bit depth : 16 bits
Compression mode : Lossy
Stream size : 41.6 MiB (30%)
Language : English
Default : Yes
Forced : No



Показать сообщения:    

Текущее время: 04-Дек 06:57

Часовой пояс: UTC + 3


Вы не можете начинать темы
Вы не можете отвечать на сообщения
Вы не можете редактировать свои сообщения
Вы не можете удалять свои сообщения
Вы не можете голосовать в опросах
Вы не можете прикреплять файлы к сообщениям
Вы не можете скачивать файлы