Король умирает (Алексей Слюсарчук) [2012 г., абсурд, SATRip] Санкт-Петербургский театр "ОсобняК"


 

[Цитировать]

Король умирает Театр: Санкт-Петербургский театр "ОсобняК".
Год выпуска: 2012.
Жанр: абсурд.
Продолжительность: 01:33:11.
Режиссер: Алексей Слюсарчук.
Действующие лица и исполнители:
Король - Дмитрий Поднозов,
Королева Маргарита - Анна Вартаньян,
Королева Мария - Алиса Олейник,
Джульетта - Катя Ионас,
Доктор - Денис Кириллов.
О спектакле:
"Король умирает" - классическое произведение театра абсурда. Как всякая увлекательная головоломка для чтения, драматургия этого направления трудно скрещивается с театральной сценой. За абсурд брались лучшие театральные таланты, одерживали победу - немногие. Санкт-Петербургский театр "Особняк" специализируется как раз на подобных "сложных" авторах, таких как Камю, Ионеско, Мрожек и Ницше. В эстетском репертуаре каждое название звучит, как вызов зрителям и самим себе.
Содержание пьесы исчерпывающе изложено в ее названии – закрывается занавес – заканчивается жизнь. Все действие занимает полтора часа. Что происходит за это время? Какие-то люди спорят и соглашаются, высказывают свое мнение и выслушивают чужое – разве имеет значение сейчас, кто окажется правым, разве что-то имеет значение? То, что неотвратимо, - неотвратимо наступит. Нет вариантов. Нет другого выхода, даже если ты "часто выигрывал в лотерею". Теперь ты живешь со смертью внутри.
Время течет так, как ты его понимаешь – полагает Эжен Ионеско. Твое время – промежуток между рождением и смертью. Другого не будет. Никогда не будет. "Никогда ничего не будет больше". Ты можешь примириться с этим, можешь противостоять этому до последней секунды. Но можешь ли ты изменить что-нибудь? Если жизнь твоя была никчемной, она навсегда останется такой. "Подумай об этом сегодня" – говорит Королева.

Дополнительная информация:
Страна: Россия .
Выпущено: © Культура.рф.
Автор: Эжен Ионеско.
Художник: Елена Соколова.
Музыкальное оформление: группа "Каменное Море".
Премьера: 28 марта 2008 года.

О спектакле.
Релиз

Качество видео:...SATRip
Формат:.................AVI
Видео:..720x400 (1.80:1), 25 fps, XviD MPEG-4 ~981 kbps avg, 0.14 bit/pixel
Аудио:..44.100 kHz, MPEG Layer 3, 2 ch, ~128.00 kbps avg

Отчет Media Info

General
Complete name : Korol'.umiraet_Teatr.Osobnyak.2012.XviD.SATRip.fenixclub.avi
Формат : AVI
Формат/Информация : Audio Video Interleave
Размер файла : 746 Мбайт
Продолжительность : 1 ч. 33 м.
Общий поток : 1120 Кбит/сек
Программа кодирования : VirtualDubModRus 1.5.10.2 (build 2542/release)
Библиотека кодирования : VirtualDub build 34753/release
Видео
Идентификатор : 0
Формат : MPEG-4 Visual
Профиль формата : Advanced Simple@L5
Параметр BVOP формата : 2
Параметр QPel формата : Нет
Параметр GMC формата : Без точки перехода
Параметр матрицы формата : Default (H.263)
Режим смешивания : Сжатый битовый поток
Идентификатор кодека : XVID
Идентификатор кодека/Подсказка : XviD
Продолжительность : 1 ч. 33 м.
Битрейт : 982 Кбит/сек
Ширина : 720 пикселей
Высота : 400 пикселей
Соотношение сторон : 16:9
Частота кадров : 25,000 кадров/сек
Цветовое пространство : YUV
Субдискретизация насыщенности : 4:2:0
Битовая глубина : 8 бит
Тип развёртки : Прогрессивная
Метод сжатия : С потерями
Бит/(Пиксели*Кадры) : 0.136
Размер потока : 655 Мбайт (88%)
Библиотека кодирования : XviD 1.2.1 (UTC 2008-12-04)
Аудио
Идентификатор : 1
Формат : MPEG Audio
Версия формата : Version 1
Профиль формата : Layer 3
Режим : Joint stereo
Расширение режима : MS Stereo
Идентификатор кодека : 55
Идентификатор кодека/Подсказка : MP3
Продолжительность : 1 ч. 33 м.
Вид битрейта : Постоянный
Битрейт : 128 Кбит/сек
Каналы : 2 канала
Частота : 44,1 КГц
Метод сжатия : С потерями
Размер потока : 85,3 Мбайт (11%)
Выравнивание : Разделение по промежуткам
Продолжительность промежутка : 40 мс. (1,00 видеокадр)
Время предзагрузки промежутка : 500 мс.
Библиотека кодирования : LAME3.99.5

Скриншоты

Альтернативный хост




Показать сообщения:    

Текущее время: 04-Дек 23:22

Часовой пояс: UTC + 3


Вы не можете начинать темы
Вы не можете отвечать на сообщения
Вы не можете редактировать свои сообщения
Вы не можете удалять свои сообщения
Вы не можете голосовать в опросах
Вы не можете прикреплять файлы к сообщениям
Вы не можете скачивать файлы