Рихард Штраус - Ариадна на Наксосе (Цюрихский оперный театр; Клаус Гут, Томас Грим; Кристоф фон Донаньи) / Richard Strauss - Ariadne Auf Naxos (Zurich Opera House; Claus Guth, Thomas Grimm; Christoph von Dohnányi) [2006, Opera, Blu-ray 1080i]


 

[Цитировать]

Рихард Штраус - Ариадна на Наксосе / Richard Strauss - Ariadne Auf Naxos
Год выпуска: 2006
Лейбл: TDK
Страна-производитель: США
Жанр: Opera
Продолжительность: 02:06:39
Язык: Немецкий
Субтитры: Английские, французские, немецкие, испанские, итальянские
Режиссер: Claus Guth (Клаус Гут), Thomas Grimm (Томас Грим)
Дирижер: Christoph von Dohnányi (Кристоф фон Донаньи)
Исполнители:
Alexander Pereira (Александр Перейра) - Haudhofmeister,
Michael Volle (Майкл Волле) - Musiklehrer (The Music-Master),
Michelle Breedt (Мишель Бредт) - Komponist (The Composer),
Roberto Saccà (Роберто Сакка) - Tenor / Bacchus,
Randall Ball (Рэндал Балл) - Offizier,
Guy de Mey (Гай Де Мей) - Tanzmeister,
Andrew Ashwin (Эндрью Эйшуин) - Perückenmacher,
Ruben Drole (Рубен Дрол) - Lakai,
Elena Moşuc (Елена Мошук) - Zerbinetta,
Emily Magee (Эмили Маджи) - Ariadne / Prima Donna,
Gabriel Bermúdez (Габриэль Бермудес) - Harlekin,
Martin Zysset (Мартин Зуссет) - Scaramuccio,
Reinhard Mayr (Рейнхард Майр) - Truffaldin,
Blagoj Nacoski (Благой Нацоский) - Brighella,
Eva Liebau (Ева Либау) - Najade,
Irène Friedli (Ирена Фридли) - Dryade,
Sandra Trattnigg (Сандра Траттниг) - Echo
Zurich Opera Orchestra (оркестр Цюрихского оперного театра)
Описание: В доме некоего богача (в него превращен мольеровский Журден) должно состояться представление трагической оперы «Ариадна на Наксосе», сочиненной молодым композитором (его партия написана для сопрано). Хозяин, ничего не смыслящий в искусстве, заказал для развлечения гостей и веселый дивертисмент, в котором будет участвовать танцовщица Зербинетта. Композитор и певцы в полном смятении оттого, что к трагедии примешивается буффонада. В довершение всего хозяин дома отдает приказ исполнить трагическую оперу и бурлеск одновременно. Плутовка Зербинетта, вскружившая голову композитору, убедила его согласиться. Начинается представление. На пустынном острове, покинутая Тезеем, горько тоскует Ариадна. Тщетно пытаются ее утешить наяды, дриады и Эхо — она безутешна и призывает Гермеса, посланца смерти. Появляется Зербинетта со своими комедиантами и развлекает Ариадну, показывая ей в комических сценах, как женщины должны обходиться с мужчинами. В этом представлении участвует и Арлекин. На корабле к острову прибывает Вакх, бежавший от искушений волшебницы Цирцеи. Ариадна сперва принимает его за Гермеса, однако поцелуй Вакха возрождает ее к новой жизни. В финале оперы любовный дуэт Ариадны и Вакха контрапунктически сочетается с буффонной сценой Зербинетты.

Оригинальное описание

Claus Guth stages this modernized update of Richard Strauss's classic opera within an opera, starring soprano Emily Magee as the lovesick title character, mezzo-soprano Michelle Breedt as the disgruntled composer and tenor Roberto Saccà as Bacchus. Filmed live at the Zurich Opera House in December 2006, the performance also features Elena Mosuc and Michael Volle. Christoph von Dohnányi conducts the Zurich Opera House Orchestra.
Бонусы: анонсы оперы и балета
Об опере
Качество видео: Blu-ray
Формат/Контейнер: BDMV
Видео кодек: MPEG4
Аудио кодек: LPCM, DTS
Видео поток: MPEG-4 Video, 1920x1080, 23954 kbps, 29.970 fps
Аудио поток: LPCM, 1536 kbps, 48 kHz, 2 ch. DTS-HD MA, 5250 kbps, 48 kHz, 8 ch

BD-Info

DISC INFO:
Disc Title: Штраус Рихард - Ариадна на Наксосе (Zurich Opera) (2006) (Blu-ray 1080i, AVC, DTS-HD 7.1)
Disc Size: 31 837 493 380 bytes
Protection: AACS
BD-Java: No
BDInfo: 0.5.8
PLAYLIST REPORT:
Name: 00003.MPLS
Length: 2:06:39.959 (h:m:s.ms)
Size: 31 098 906 624 bytes
Total Bitrate: 32,74 Mbps
VIDEO:
Codec Bitrate Description
----- ------- -----------
MPEG-4 AVC Video 23954 kbps 1080i / 29,970 fps / 16:9 / High Profile 4.1
AUDIO:
Codec Language Bitrate Description
----- -------- ------- -----------
DTS-HD Master Audio German 5250 kbps 7.1 / 48 kHz / 5250 kbps / 24-bit (DTS Core: 5.1 / 48 kHz / 1509 kbps / 24-bit)
LPCM Audio German 1536 kbps 2.0 / 48 kHz / 1536 kbps / 16-bit
SUBTITLES:
Codec Language Bitrate Description
----- -------- ------- -----------
Presentation Graphics English 17,909 kbps
Presentation Graphics French 19,917 kbps
Presentation Graphics German 20,159 kbps
Presentation Graphics Italian 18,100 kbps
Presentation Graphics Spanish 18,117 kbps
FILES:
Name Time In Length Size Total Bitrate
---- ------- ------ ---- -------------
00005.M2TS 0:00:00.000 0:39:29.367 9 702 070 272 32 758
00006.M2TS 0:39:29.367 1:26:56.211 21 395 712 000 32 814
00007.M2TS 2:06:25.578 0:00:14.047 1 112 064 633
00004.M2TS 2:06:39.625 0:00:00.333 12 288 295
Семпл

Скриншоты


Скриншоты бонусов




Показать сообщения:    

Текущее время: 11-Дек 07:16

Часовой пояс: UTC + 3


Вы не можете начинать темы
Вы не можете отвечать на сообщения
Вы не можете редактировать свои сообщения
Вы не можете удалять свои сообщения
Вы не можете голосовать в опросах
Вы не можете прикреплять файлы к сообщениям
Вы не можете скачивать файлы