Маленькие трагедии (Леонид Вивьен, Антонин Даусон, Леонид Пчёлкин) [1971 г., трагедия, телеспектакль, SATRip] Ленинградский театр драмы имени А.С.Пушкина


 

[Цитировать]

Маленькие трагедии Название театра: Ленинградский театр драмы имени А.С.Пушкина.
Год выпуска: 1971.
Жанр: трагедия, телеспектакль.
Продолжительность: 01:06:22.
Режиссеры: народный артист СССР Леонид Вивьен, Антонин Даусон, заслуженный артист РСФСР Леонид Пчёлкин.
В ролях:
"Скупой рыцарь"
Барон
- народный артист РСФСР Бруно Фрейндлих,
Альбер - Николай Мартон,
Иван - Василий Минин,
Герцог - заслуженный артист РСФСР Юрий Родионов,
Ростовщик - заслуженный артист РСФСР Юрий Свирин.
"Моцарт и Сальери"
Сальери
- народный артист СССР Николай Симонов,
Моцарт - народный артист РСФСР Иннокентий Смоктуновский.
Описание:
Телеспектакль по пьесам А.С. Пушкина "Скупой рыцарь", "Моцарт и Сальери" в постановке Ленинградского государственного академического театра драмы имени А.С. Пушкина.
Дополнительная информация:
Страна: СССР .
Выпущено: Творческое объединение "Экран".
Режиссер спектакля: Леонид Вивьен.
Режиссеры фильма: Антонин Даусон, Леонид Пчелкин.
Автор: Александр Пушкин.
Оператор-постановщик: Юрий Схиртладзе.
Художник-постановщик: Игорь Лемешев.
Музыка: Вольфганг Моцарт, Дмитрий Шостакович.

Релиз
Огромное спасибо Доброму человеку за предоставленый материал!!!

Качество: SATRip
Формат: AVI
Видео: 688x512 (1.34:1), 25 fps, XviD MPEG-4 ~1366 kbps avg, 0.16 bit/pixel
Аудио: 48 kHz, MPEG Layer 3, 2 ch, ~192.00 kbps avg

Отчет MediaInfo

Общее
Полное имя : Malenkie.tragedii_Lenigradskij.TD.im.Pushkina.1971.XviD.SATRip.fenixclub.avi
Формат : AVI
Формат/Информация : Audio Video Interleave
Размер файла : 744 Мбайт
Продолжительность : 1 ч. 6 м.
Общий поток : 1568 Кбит/сек
Программа кодирования : VirtualDubModRus 1.5.10.2 (build 2542/release)
Библиотека кодирования : VirtualDub build 34753/release
Видео
Идентификатор : 0
Формат : MPEG-4 Visual
Профиль формата : Advanced Simple@L5
Параметр BVOP формата : 2
Параметр QPel формата : Нет
Параметр GMC формата : Без точки перехода
Параметр матрицы формата : Default (H.263)
Режим смешивания : Сжатый битовый поток
Идентификатор кодека : XVID
Идентификатор кодека/Подсказка : XviD
Продолжительность : 1 ч. 6 м.
Битрейт : 1366 Кбит/сек
Ширина : 688 пикселей
Высота : 512 пикселей
Соотношение сторон : 4:3
Частота кадров : 25,000 кадров/сек
Цветовое пространство : YUV
Субдискретизация насыщенности : 4:2:0
Битовая глубина : 8 бит
Тип развёртки : Прогрессивная
Метод сжатия : С потерями
Бит/(Пиксели*Кадры) : 0.155
Размер потока : 649 Мбайт (87%)
Библиотека кодирования : XviD 1.2.1 (UTC 2008-12-04)
Аудио
Идентификатор : 1
Формат : MPEG Audio
Версия формата : Version 1
Профиль формата : Layer 3
Режим : Joint stereo
Расширение режима : MS Stereo
Идентификатор кодека : 55
Идентификатор кодека/Подсказка : MP3
Продолжительность : 1 ч. 6 м.
Вид битрейта : Постоянный
Битрейт : 192 Кбит/сек
Каналы : 2 канала
Частота : 48,0 КГц
Метод сжатия : С потерями
Размер потока : 91,1 Мбайт (12%)
Выравнивание : Разделение по промежуткам
Продолжительность промежутка : 40 мс. (1,00 видеокадр)
Время предзагрузки промежутка : 500 мс.

Скриншоты

Альтернативный хост




Показать сообщения:    

Текущее время: 03-Дек 07:37

Часовой пояс: UTC + 3


Вы не можете начинать темы
Вы не можете отвечать на сообщения
Вы не можете редактировать свои сообщения
Вы не можете удалять свои сообщения
Вы не можете голосовать в опросах
Вы не можете прикреплять файлы к сообщениям
Вы не можете скачивать файлы