Дураки на периферии (Михаил Бычков) [2011 г., комедия, SATRip] Воронежский камерный театр


 

[Цитировать]

Дураки на периферии Название театра: Воронежский камерный театр.
Жанр: комедия.
Год выпуска: 2011.
Продолжительность: 01:58:43.
Режиссер-постановщик: Михаил Бычков.
Действующие лица и исполнители:
Иван Павлович Башмаков, счетовод - Юрий Овчинников,
Марья Ивановна Башмакова, его жена - заслуженная артистка Воронежской области Елена Лукиных,
Катя, дочь Башмакова от первого брака - Екатерина Савченко,
Глеб Иванович Рудин, письмоводитель милиции - Андрей Новиков,
Евтюшкин Карп Иванович, председатель комиссии охматмлада - Камиль Тукаев,
Ащеулов Василий Степанович, секретарь комиссии - Борис Алексеев,
Лутьин Данила Дмитриевич, член комиссии - Вадим Кривошеев,
Милиционерша - Мария Малишевская,
Ащеулова Алёна Фирсовна - Екатерина Савченко,
Лутьина Лидия Павловна - Людмила Гуськова,
Евтюшкина Капитолина Сергеевна - Елена Дахина,
Странник - народный артист России Александр Тарасенко,
Судья - Татьяна Чернявская.
О спектакле:
Действие происходит в уездном Переучетске. В квартире счетовода Ивана Павловича Башмакова суета - семья готовится к приходу комиссии охматмлада - "охраны матерей и ихних младенцев" - вызванной хозяином на предмет получения разрешения на аборт. Комиссия в составе троих мужчин категорически отказывает в этом: как выясняется, каждый из ее членов может быть отцом ребенка. Возмущенный муж судится, жены членов комиссии подают на развод, охматмладу ввиду образовавшихся беспорядков приходится укрываться, и сюжет запутывается так, что только явившийся из губгорода некий Старший рационализатор может восстановить порядок вещей.
Дополнительная информация:
Страна: Россия .
Выпущено: © Культура.рф.
Автор: Андрей Платонов.
Сценография: Юрий Сучков, Михаил Бычков.
Художник по костюмам: Юрий Сучков.
Художник по свету: Владимир Жуков.
В спектакле звучит музыка FФредерика Шопена, Паскаля Комелада, Франка Пахла.
В оформлении использованы мотивы произведений Марка Ротко.
Музыкальное оформление: Владислав Толецкий.
Художественный руководитель театра: Михаил Бычков.
Премьера состоялась 24 сентября 2011 года.

О спектакле.
Релиз

Качество видео:...SATRip
Формат:.................AVI
Видео:..720x400 (1.80:1), 25 fps, XviD MPEG-4 ~1506 kbps avg, 0.21 bit/pixel
Аудио:..44.100 kHz, MPEG Layer 3, 2 ch, ~128.00 kbps avg

Отчет MediaInfo

Общее
Полное имя : Duraki.na.periferii_Voronezhskij.kamernyj.teatr.2011.XviD.SATRip.fenixсlub.avi
Формат : AVI
Формат/Информация : Audio Video Interleave
Размер файла : 1,36 Гбайт
Продолжительность : 1 ч. 58 м.
Общий поток : 1645 Кбит/сек
Программа кодирования : VirtualDubModRus 1.5.10.2 (build 2542/release)
Библиотека кодирования : VirtualDub build 34753/release
Видео
Идентификатор : 0
Формат : MPEG-4 Visual
Профиль формата : Advanced Simple@L5
Параметр BVOP формата : 2
Параметр QPel формата : Нет
Параметр GMC формата : Без точки перехода
Параметр матрицы формата : Default (H.263)
Режим смешивания : Сжатый битовый поток
Идентификатор кодека : XVID
Идентификатор кодека/Подсказка : XviD
Продолжительность : 1 ч. 58 м.
Битрейт : 1507 Кбит/сек
Ширина : 720 пикселей
Высота : 400 пикселей
Соотношение сторон : 16:9
Частота кадров : 25,000 кадров/сек
Цветовое пространство : YUV
Субдискретизация насыщенности : 4:2:0
Битовая глубина : 8 бит
Тип развёртки : Прогрессивная
Метод сжатия : С потерями
Бит/(Пиксели*Кадры) : 0.209
Размер потока : 1,25 Гбайт (92%)
Библиотека кодирования : XviD 1.2.1 (UTC 2008-12-04)
Аудио
Идентификатор : 1
Формат : MPEG Audio
Версия формата : Version 1
Профиль формата : Layer 3
Режим : Joint stereo
Расширение режима : MS Stereo
Идентификатор кодека : 55
Идентификатор кодека/Подсказка : MP3
Продолжительность : 1 ч. 58 м.
Вид битрейта : Постоянный
Битрейт : 128 Кбит/сек
Каналы : 2 канала
Частота : 44,1 КГц
Метод сжатия : С потерями
Размер потока : 109 Мбайт (8%)
Выравнивание : Разделение по промежуткам
Продолжительность промежутка : 40 мс. (1,00 видеокадр)
Время предзагрузки промежутка : 500 мс.
Библиотека кодирования : LAME3.99.5

Скриншоты

[/url]

Альтернативный хост




Показать сообщения:    

Текущее время: 07-Дек 13:35

Часовой пояс: UTC + 3


Вы не можете начинать темы
Вы не можете отвечать на сообщения
Вы не можете редактировать свои сообщения
Вы не можете удалять свои сообщения
Вы не можете голосовать в опросах
Вы не можете прикреплять файлы к сообщениям
Вы не можете скачивать файлы