Театральные встречи. Ленинградцы в гостях у москвичей (Галина Холопова) [1966 г., Театральные встречи, SATRip] Центральный Дом Актера


Статистика раздачи [Обновить пиров]
Размер:  1.36 GB   |    Зарегистрирован:  8 месяцев 23 дня   |    Скачан:  0 раз

Полного источника не было: Никогда

Личеров:  40  [  0 KB/s  ]   Подробная статистика пиров
 
   
 
 
 

[Цитировать]

Театральные встречи. Ленинградцы в гостях у москвичей Год выпуска: 1966.
Жанр: Театральные встречи.
Продолжительность: 01:43:37.
Режиссёр: Галина Холопова.
Ведущие: народный артист СССР Михаил Жаров, народная артистка РСФСР Юлия Борисова.
Участники:
Василий Меркурьев, Рубен Симонов, Клавдия Шульженко, Юрий Толубеев, Борис Чирков, Михаил Матусовский, Василий Соловьёв-Седой, Александр Борисов, Евгений Жаров, Элла Долматова, Глеб Горбовский, Анатолий Лепин, Владимир Махов, Александр Котов, Леонид Малюгин.
Описание:
Театральные встречи в Доме Актера. Москвичи встречаются с деятелями культуры Ленинграда. Они вспоминают интересные моменты театральной жизни, показывают сценки, поют песни, читают стихи.
Дополнительная информация:
Страна: СССР .
Выпущено: Центральное Телевидение.
Операторы: Юрий Игнатов, Виталий Гаспарянц, Евгений Талызин.

Релиз
Огромное спасибо Доброму человеку за предоставленый материал!!!
Качество видео:...SATRip
Формат:.................AVI
Видео:..704x528 (1.33:1), 25 fps, XviD MPEG-4 ~1679 kbps avg, 0.18 bit/pixel
Аудио:..48 kHz, MPEG Layer 3, 2 ch, ~192.00 kbps avg

Отчет MI

Общее
Полное имя : Teatralnye.vstrechi.Leningradcy.v.gostyah.u.Moskvichej.1966.XviD.SATRip.fenixclub.avi
Формат : AVI
Формат/Информация : Audio Video Interleave
Размер файла : 1,36 Гбайт
Продолжительность : 1 ч. 43 м.
Общий поток : 1881 Кбит/сек
Программа кодирования : VirtualDubModRus 1.5.10.2 (build 2542/release)
Библиотека кодирования : VirtualDub build 34753/release
Видео
Идентификатор : 0
Формат : MPEG-4 Visual
Профиль формата : Advanced Simple@L5
Параметр BVOP формата : 2
Параметр QPel формата : Нет
Параметр GMC формата : Без точки перехода
Параметр матрицы формата : Default (H.263)
Режим смешивания : Сжатый битовый поток
Идентификатор кодека : XVID
Идентификатор кодека/Подсказка : XviD
Продолжительность : 1 ч. 43 м.
Битрейт : 1680 Кбит/сек
Ширина : 704 пикселя
Высота : 528 пикселей
Соотношение сторон : 4:3
Частота кадров : 25,000 кадров/сек
Цветовое пространство : YUV
Субдискретизация насыщенности : 4:2:0
Битовая глубина : 8 бит
Тип развёртки : Прогрессивная
Метод сжатия : С потерями
Бит/(Пиксели*Кадры) : 0.181
Размер потока : 1,22 Гбайт (89%)
Библиотека кодирования : XviD 1.2.1 (UTC 2008-12-04)
Аудио
Идентификатор : 1
Формат : MPEG Audio
Версия формата : Version 1
Профиль формата : Layer 3
Режим : Joint stereo
Расширение режима : MS Stereo
Идентификатор кодека : 55
Идентификатор кодека/Подсказка : MP3
Продолжительность : 1 ч. 43 м.
Вид битрейта : Постоянный
Битрейт : 192 Кбит/сек
Каналы : 2 канала
Частота : 48,0 КГц
Метод сжатия : С потерями
Размер потока : 142 Мбайт (10%)
Выравнивание : Разделение по промежуткам
Продолжительность промежутка : 40 мс. (1,00 видеокадр)
Время предзагрузки промежутка : 500 мс.

Скриншоты

Альтернативный хост

[teatrix.ru].t15482.torrent 
Торрент: Зарегистрирован [ 2016-03-14 00:35 ] · 78F01CC769E4B3AA46F0F867485879E80422A4B6

Скачать .torrent

Скачать

14 KB

Статус: проверено
Скачан: 0 раз
Размер: 1.36 GB
terms.php



Быстрый ответ

Имя:

      
Для отправки сообщений необходимо включить JavaScript
Показать сообщения:    

Текущее время: 06-Дек 22:56

Часовой пояс: UTC + 3


Вы можете начинать темы
Вы можете отвечать на сообщения
Вы не можете редактировать свои сообщения
Вы не можете удалять свои сообщения
Вы не можете голосовать в опросах
Вы не можете прикреплять файлы к сообщениям
Вы можете скачивать файлы