Giuseppe Verdi - Nabucco (Wiener Staatsopernorchester, Fabio Luisi, Leo Nucci, Miro Dvorsky, Giacomo Prestia, Maria Guleghina, Marina Domashenko) [2001, Opera, HDTV 720p]


 

[Цитировать]

Nabucco
Oper von Giuseppe Verdi

Chor und Orchester der Wiener Staatsoper • Fabio Luisi

-
Год выпуска: 2001
Лейбл: ORF und NHK
Жанр: Opera
Продолжительность: 02:05:35
Субтитры: немецкие (неотключаемые)
Режиссер: Günter Krämer
Исполнители:
Nabucco - Leo Nucci
Königsenkel Ismael - Miro Dvorsky
Oberpriester Zacharias - Giacomo Prestia
Abigail - Maria Guleghina
Fenena - Marina Domashenko
Der Oberpriester des Baal - Goran Simic
Abdallo - Walter Pauritsch
Anna - Renate Pitscheider
Libretto - Temistocle Solera
Chor - Wiener Staatsopernchor
Orchester - Wiener Staatsopernorchester
Musikalische Leitung - Fabio Luisi
Треклист:
Giuseppe Verdi - Nabucco
Доп. информация:
Nabucco - Oper von Giuseppe Verdi 3sat.de
Leo Nucci Official Site
Leo Nucci from Wikipedia, the free encyclopedia
Leo Nucci материал из Википедии - свободной энциклопедии
Miro Dvorsky from Wikipedia, the free encyclopedia
Giacomo Prestia from Wikipedia, the free encyclopedia
Maria Guleghina Official Site
Maria Guleghina from Wikipedia, the free encyclopedia
Marina Domashenko from Wikipedia, the free encyclopedia
Качество видео: HDTV 720p
Контейнер: TS
Видео кодек: H.264
Аудио кодек: AC3
Видео поток: 11.0 Mbps, 1280*720 (16:9), at 50.000 fps, AVC (High@L4.0) (CABAC / 6 Ref Frames)
Аудио поток: German, 256 Kbps, 48.0 KHz, 2 channels, MPEG Audio (Version 1) (Layer 2)
Аудио 2: 192 Kbps, 48.0 KHz, 2 channels, MPEG Audio (Version 1) (Layer 2)
Аудио 3: German, 448 Kbps, 48.0 KHz, 16 bits, 2 channels, AC-3
Аудио 4: Multiple languages, 192 Kbps, 48.0 KHz, 2 channels, MPEG Audio (Version 1) (Layer 2)
Источник: Digital Satellite > SkyStar HD2 (TechniSat) > raw data to HDD > Cypheros TS-Doctor > ts

MediaInfo

General
ID : 8900 (0x22C4)
Complete name : C:\rutracker.org_HD\3sat HD_Nabucco - Wiener Staatsoper (2001).ts
Format : MPEG-TS
File size : 11.2 GiB
Duration : 2h 5mn
Overall bit rate mode : Variable
Overall bit rate : 12.8 Mbps
Video
ID : 6510 (0x196E)
Menu ID : 11150 (0x2B8E)
Format : AVC
Format/Info : Advanced Video Codec
Format profile : High@L4.0
Format settings, CABAC : Yes
Format settings, ReFrames : 6 frames
Format settings, GOP : M=4, N=29
Codec ID : 27
Duration : 2h 5mn
Bit rate : 11.0 Mbps
Width : 1 280 pixels
Height : 720 pixels
Display aspect ratio : 16:9
Frame rate : 50.000 fps
Color space : YUV
Chroma subsampling : 4:2:0
Bit depth : 8 bits
Scan type : Progressive
Bits/(Pixel*Frame) : 0.240
Stream size : 9.68 GiB (86%)
Color primaries : BT.709
Transfer characteristics : BT.709
Matrix coefficients : BT.709
Audio #1
ID : 6520 (0x1978)
Menu ID : 11150 (0x2B8E)
Format : MPEG Audio
Format version : Version 1
Format profile : Layer 2
Codec ID : 3
Duration : 2h 5mn
Bit rate mode : Constant
Bit rate : 256 Kbps
Channel(s) : 2 channels
Sampling rate : 48.0 KHz
Compression mode : Lossy
Delay relative to video : -530ms
Stream size : 230 MiB (2%)
Language : German
Audio #2
ID : 6521 (0x1979)
Menu ID : 11150 (0x2B8E)
Format : MPEG Audio
Format version : Version 1
Format profile : Layer 2
Codec ID : 3
Duration : 2h 5mn
Bit rate mode : Constant
Bit rate : 192 Kbps
Channel(s) : 2 channels
Sampling rate : 48.0 KHz
Compression mode : Lossy
Delay relative to video : -530ms
Stream size : 172 MiB (2%)
Audio #3
ID : 6522 (0x197A)
Menu ID : 11150 (0x2B8E)
Format : AC-3
Format/Info : Audio Coding 3
Mode extension : CM (complete main)
Format settings, Endianness : Big
Codec ID : 6
Duration : 2h 5mn
Bit rate mode : Constant
Bit rate : 448 Kbps
Channel(s) : 2 channels
Channel positions : Front: L R
Sampling rate : 48.0 KHz
Bit depth : 16 bits
Compression mode : Lossy
Delay relative to video : -533ms
Stream size : 402 MiB (4%)
Language : German
Audio #4
ID : 6523 (0x197B)
Menu ID : 11150 (0x2B8E)
Format : MPEG Audio
Format version : Version 1
Format profile : Layer 2
Codec ID : 3
Duration : 2h 5mn
Bit rate mode : Constant
Bit rate : 192 Kbps
Channel(s) : 2 channels
Sampling rate : 48.0 KHz
Compression mode : Lossy
Delay relative to video : -570ms
Stream size : 172 MiB (2%)
Language : Multiple languages

... info ...

3sat zeigt eine "Nabucco" - Inszenierung von Günter Krämer aus der Wiener Staatsoper aus dem Jahre 2001.
"Nabucco" erzählt vom Ende des davidischen Königtums, der ersten souveränen Herrschaft über die jüdischen Stämme. Der babylonische König Nebukadnezar erobert Jerusalem, lässt den unter David errichteten Tempel zerstören und versklavt einen Großteil des jüdischen Volkes. Seither ist im Judentum der Glaube verankert, dass der Messias bei seiner Ankunft das davidische Königtum wiederherstellen werde. In der Oper lässt der Gedanke an die verlorene Heimat die versklavten Juden das babylonische Joch ertragen.
Inoffizielle Hymne Italiens
Leo Nucci und Giacomo Prestia.
Der ursprüngliche Text von Temistocle Solera erwies sich als besonders gut für eine Oper geeignet. Das Schicksal eines ganzen Volkes verdichtet sich im tragischen Handeln weniger Personen. Mit dem berühmten Gefangenenchor "Va pensiero" ("Flieh, Gedanke!") ist "Nabucco" nicht nur ein Opernhit, sondern gilt als inoffizielle Hymne der Italiener.
Auch für Wien hat diese Oper einen besonderen musikgeschichtlichen Stellenwert: Verdi selbst dirigierte am 4. April 1843 die Wiener Erstaufführung im Kärntnertortheater. In der Aufzeichnung aus der Wiener Staatsoper 2001 spielen und singen das Staatsopernorchester und der Staatsopernchor unter der Leitung von Fabio Luisi.
~ 3sat.de



Показать сообщения:    

Текущее время: 04-Дек 23:25

Часовой пояс: UTC + 3


Вы не можете начинать темы
Вы не можете отвечать на сообщения
Вы не можете редактировать свои сообщения
Вы не можете удалять свои сообщения
Вы не можете голосовать в опросах
Вы не можете прикреплять файлы к сообщениям
Вы не можете скачивать файлы