Ужин в четыре руки (Михаил Козаков) [1999, драма, DVB]


 

[Цитировать]

Ужин в четыре руки
Жанр: драма
Год выпуска: 1999
Продолжительность: 00:45:35 + 00:43:20
Режиссёр: Михаил Козаков
В ролях: Михаил Козаков, Евгений Стеблов, Анатолий Грачёв, Михаил Козаков (мл.)
Описание: По пьесе Пауля Барца «Возможная встреча».
Интимно-сокровенная конфликтная драма. Действие разворачивается на фоне противоборства двух тем: «Художник и Власть» (Гендель), «Художник и Бог» (Бах). Время и место действия истории, которой не было, но которая вполне могла произойти, — Лейпциг, 1747 год. Гендель, любимец публики и сильных мира сего, приглашает Баха, кантора церкви Святого Фомы и отца двадцати детей, только что принятого в «Общество музыкальных наук», на обед в гостиницу. Агрессивный настрой первых минут этой встречи перерастает во взаимопонимание двух стареющих и слепнущих композиторов, мудрых, одиноких и одинаково несчастных. В основе телефильма — спектакль «Возможная встреча», поставленный Михаилом Козаковым в театре «Русская Антреприза Михаила Козакова».
Доп. информация:
Запись потока *.ts со спутника ABS-2, 75° в.д., ремукс в *.mpg программой VideoReDo.
Качество видео: DVB
Формат видео: MPEG-PS
Видео: MPEG Video, 720(768)x576 (4:3), 25,000 кадров/сек, 3186 Кбит/сек
Аудио: MPEG Audio, 48,0 КГц, 192 Кбит/сек, 2 канала

MediaInfo

Общее
Полное имя : D:\Torrent\УЖИН В ЧЕТЫРЕ РУКИ\УЖИН В ЧЕТЫРЕ РУКИ 1 (Moskva Doverie).mpg
Формат : MPEG-PS
Размер файла : 1,10 Гбайт
Продолжительность : 45 м.
Режим общего битрейта : Переменный
Общий поток : 3446 Кбит/сек
Видео
Идентификатор : 224 (0xE0)
Формат : MPEG Video
Версия формата : Version 2
Профиль формата : Main@Main
Параметр BVOP формата : Да
Параметр матрицы формата : Выборочная
Параметр GOP формата : M=3, N=12
Продолжительность : 45 м.
Вид битрейта : Переменный
Битрейт : 3186 Кбит/сек
Максимальный битрейт : 15,0 Мбит/сек
Ширина : 720 пикселей
Высота : 576 пикселей
Соотношение сторон : 4:3
Частота кадров : 25,000 кадров/сек
Стандарт вещания : PAL
Цветовое пространство : YUV
Субдискретизация насыщенности : 4:2:0
Битовая глубина : 8 бит
Тип развёртки : Чересстрочная
Порядок развёртки : Верхнее поле первое
Метод сжатия : С потерями
Бит/(Пиксели*Кадры) : 0.307
Временной код первого кадра : 00:00:00:00
Оригинал временного кода : Group of pictures header
Размер потока : 1,01 Гбайт (92%)
Аудио
Идентификатор : 192 (0xC0)
Формат : MPEG Audio
Версия формата : Version 1
Профиль формата : Layer 2
Продолжительность : 45 м.
Вид битрейта : Постоянный
Битрейт : 192 Кбит/сек
Каналы : 2 канала
Частота : 48,0 КГц
Метод сжатия : С потерями
Задержка видео : 12 мс.
Размер потока : 62,6 Мбайт (6%)
Общее
Полное имя : D:\Torrent\УЖИН В ЧЕТЫРЕ РУКИ\УЖИН В ЧЕТЫРЕ РУКИ 2 (Moskva Doverie).mpg
Формат : MPEG-PS
Размер файла : 1,04 Гбайт
Продолжительность : 43 м.
Режим общего битрейта : Переменный
Общий поток : 3446 Кбит/сек
Видео
Идентификатор : 224 (0xE0)
Формат : MPEG Video
Версия формата : Version 2
Профиль формата : Main@Main
Параметр BVOP формата : Да
Параметр матрицы формата : Выборочная
Параметр GOP формата : M=3, N=12
Продолжительность : 43 м.
Вид битрейта : Переменный
Битрейт : 3186 Кбит/сек
Максимальный битрейт : 15,0 Мбит/сек
Ширина : 720 пикселей
Высота : 576 пикселей
Соотношение сторон : 4:3
Частота кадров : 25,000 кадров/сек
Стандарт вещания : PAL
Цветовое пространство : YUV
Субдискретизация насыщенности : 4:2:0
Битовая глубина : 8 бит
Тип развёртки : Чересстрочная
Порядок развёртки : Верхнее поле первое
Метод сжатия : С потерями
Бит/(Пиксели*Кадры) : 0.307
Временной код первого кадра : 00:00:00:00
Оригинал временного кода : Group of pictures header
Размер потока : 988 Мбайт (92%)
Аудио
Идентификатор : 192 (0xC0)
Формат : MPEG Audio
Версия формата : Version 1
Профиль формата : Layer 2
Продолжительность : 43 м.
Вид битрейта : Постоянный
Битрейт : 192 Кбит/сек
Каналы : 2 канала
Частота : 48,0 КГц
Метод сжатия : С потерями
Задержка видео : 20 мс.
Размер потока : 59,5 Мбайт (6%)

Скриншот с названием постановки

Скриншоты




Показать сообщения:    

Текущее время: 08-Дек 21:08

Часовой пояс: UTC + 3


Вы не можете начинать темы
Вы не можете отвечать на сообщения
Вы не можете редактировать свои сообщения
Вы не можете удалять свои сообщения
Вы не можете голосовать в опросах
Вы не можете прикреплять файлы к сообщениям
Вы не можете скачивать файлы