Jules Massenet - Werther (Wiener Staatsopernorchester, Philippe Jordan, Marcelo Alvarez, Adrian Erod, Alfred Sramek, Elina Garanca, Ileana Tonca) [2005, Opera, HDTV 720p]


 

[Цитировать]

Werther
Lyrisches Drama in vier Akten von Jules Massenet

Chor und Orchester der Wiener Staatsoper • Philippe Jordan

-
Год выпуска: 2005
Лейбл: ORF
Жанр: Opera
Продолжительность: 02:11:27
Язык: французский
Субтитры: немецкие (неотключаемые)
Режиссер: Andrei Serban
Исполнители:
Werther - Marcelo Álvarez
Albert - Adrian Eröd
Le Bailli - Alfred Šramek
Charlotte - Elina Garanča
Sophie - Ileana Tonca
Smidt - Peter Jelosils
Johann - Marcus Pelz
Kätchen - Maria Gusenleitner
Brühlmann - Clemens Unterreiner
Libretto - Edouard Blau, Paul Millet, Georges Hartmann
Literarische Vorlage - Johann Wolfgang von Goethe
Chor - Wiener Staatsopernchor
Orchester - Wiener Staatsopernorchester
Dirigent - Philippe Jordan
Треклист:
Jules Massenet - Werther. Lyrisches Drama in vier Akten
Доп. информация:
Werther - Lyrisches Drama in vier Akten 3sat.de
Marcelo Álvarez Official Site
Marcelo Álvarez from Wikipedia, the free encyclopedia
Adrian Eröd from Wikipedia, the free encyclopedia
Elina Garanča Official Site
Elina Garanča from Wikipedia, the free encyclopedia
Качество видео: HDTV 720p
Контейнер: TS
Видео кодек: H.264
Аудио кодек: AC3
Видео поток: 11.2 Mbps, 1280*720 (16:9), at 50.000 fps, AVC (High@L4.0) (CABAC / 6 Ref Frames)
Аудио поток: German, 256 Kbps, 48.0 KHz, 2 channels, MPEG Audio (Version 1) (Layer 2)
Аудио 2: 192 Kbps, 48.0 KHz, 2 channels, MPEG Audio (Version 1) (Layer 2)
Аудио 3: German, 448 Kbps, 48.0 KHz, 16 bits, 5 channels, AC-3
Аудио 4: Multiple languages, 192 Kbps, 48.0 KHz, 2 channels, MPEG Audio (Version 1) (Layer 2)
Источник: Digital Satellite > SkyStar HD2 (TechniSat) > raw data to HDD > Cypheros TS-Doctor > ts

MediaInfo

General
ID : 8900 (0x22C4)
Complete name : C:\rutracker.org_HD\3sat HD_Werther - Wiener Staatsoper (2005).ts
Format : MPEG-TS
File size : 11.9 GiB
Duration : 2h 11mn
Overall bit rate mode : Variable
Overall bit rate : 13.0 Mbps
Video
ID : 6510 (0x196E)
Menu ID : 11150 (0x2B8E)
Format : AVC
Format/Info : Advanced Video Codec
Format profile : High@L4.0
Format settings, CABAC : Yes
Format settings, ReFrames : 6 frames
Format settings, GOP : M=4, N=29
Codec ID : 27
Duration : 2h 11mn
Bit rate : 11.2 Mbps
Width : 1 280 pixels
Height : 720 pixels
Display aspect ratio : 16:9
Frame rate : 50.000 fps
Color space : YUV
Chroma subsampling : 4:2:0
Bit depth : 8 bits
Scan type : Progressive
Bits/(Pixel*Frame) : 0.244
Stream size : 10.3 GiB (87%)
Color primaries : BT.709
Transfer characteristics : BT.709
Matrix coefficients : BT.709
Audio #1
ID : 6520 (0x1978)
Menu ID : 11150 (0x2B8E)
Format : MPEG Audio
Format version : Version 1
Format profile : Layer 2
Codec ID : 3
Duration : 2h 11mn
Bit rate mode : Constant
Bit rate : 256 Kbps
Channel(s) : 2 channels
Sampling rate : 48.0 KHz
Compression mode : Lossy
Delay relative to video : 89ms
Stream size : 241 MiB (2%)
Language : German
Audio #2
ID : 6521 (0x1979)
Menu ID : 11150 (0x2B8E)
Format : MPEG Audio
Format version : Version 1
Format profile : Layer 2
Codec ID : 3
Duration : 2h 11mn
Bit rate mode : Constant
Bit rate : 192 Kbps
Channel(s) : 2 channels
Sampling rate : 48.0 KHz
Compression mode : Lossy
Delay relative to video : 89ms
Stream size : 181 MiB (1%)
Audio #3
ID : 6522 (0x197A)
Menu ID : 11150 (0x2B8E)
Format : AC-3
Format/Info : Audio Coding 3
Mode extension : CM (complete main)
Format settings, Endianness : Big
Codec ID : 6
Duration : 2h 11mn
Bit rate mode : Constant
Bit rate : 448 Kbps
Channel(s) : 5 channels
Channel positions : Front: L C R, Side: L R
Sampling rate : 48.0 KHz
Bit depth : 16 bits
Compression mode : Lossy
Delay relative to video : 120ms
Stream size : 421 MiB (3%)
Language : German
Audio #4
ID : 6523 (0x197B)
Menu ID : 11150 (0x2B8E)
Format : MPEG Audio
Format version : Version 1
Format profile : Layer 2
Codec ID : 3
Duration : 2h 11mn
Bit rate mode : Constant
Bit rate : 192 Kbps
Channel(s) : 2 channels
Sampling rate : 48.0 KHz
Compression mode : Lossy
Delay relative to video : 49ms
Stream size : 181 MiB (1%)
Language : Multiple languages

... info ...

Werther
Lyrisches Drama in vier Akten von Jules Massenet
Werther besucht einen verwitweten Amtmann und verliebt sich rettungslos in Charlotte, die erwachsene Tochter des Amtmanns. Die jedoch hat ihrer sterbenden Mutter versprochen, ihren Verlobten Albert zu heiraten.
Mitten im Hochsommer probt der verwitwete Amtmann mit seinen noch minderjährigen Kindern Weihnachtslieder. Werther, der zu Besuch kommt, gerät über die wunderbare Natur ins Schwärmen. Als er die Liebe sieht, die die Kinder ihrer Schwester Charlotte, der einzigen erwachsenen Tochter des Amtmannes, entgegenbringen, ist er tief beeindruckt. Mit Charlotte alleingeblieben, gesteht er ihr seine Liebe.
Charlotte und Sophie
Doch Charlotte weicht ihm aus und weist ihn auf einen Schwur hin, den sie ihrer sterbenden Mutter geleistet hatte: Albert, ihren Verlobten, zu heiraten. Da trifft die Nachricht ein, dass Albert zurückgekehrt ist. Werther ist verzweifelt.
Andrei Serban inszenierte Jules Massenets Drama "Werther" an der Wiener Staatsoper. Es ist nach "Hoffmanns Erzählungen" und "Die lustigen Witwe" seine dritte Regiearbeit in Wien. Die musikalische Leitung hatte Philippe Jordan inne, Marcelo Álvarez und Elina Garanca singen die Hauptrollen.
~ 3sat.de



Показать сообщения:    

Текущее время: 07-Дек 19:21

Часовой пояс: UTC + 3


Вы не можете начинать темы
Вы не можете отвечать на сообщения
Вы не можете редактировать свои сообщения
Вы не можете удалять свои сообщения
Вы не можете голосовать в опросах
Вы не можете прикреплять файлы к сообщениям
Вы не можете скачивать файлы