(Vocal / Classical / Crossover) The Choirboys - The Choirboys - 2005, FLAC (tracks+.cue), lossless


 

[Цитировать]

The Choirboys - The Choirboys
Жанр: Vocal / Classical / Crossover
Страна-производитель диска: EU
Год издания диска: 2005
Издатель (лейбл): Universal Classics & Jazz
Номер по каталогу: 987 4369
Аудио кодек: FLAC (*.flac)
Тип рипа: tracks+.cue
Битрейт аудио: lossless
Продолжительность: 59:33
Источник (релизер): собственный рип с оригинального Audio CD
Наличие сканов в содержимом раздачи: да / *.jpg (300 dpi)
Трэклист:
1. Ecce Homo (Theme from "Mr. Bean") (Howard Goodall) (1:57)
2. Tears in Heaven (Eric Clapton/Will Jennings) (4:04)
3. Panis Angelicus (3:45)
4. Do You Hear What I Hear? (N Regency & G Shayne) Featuring Hayley Westenra (2:52)
5. Walking In The Air (Theme from "The Snowman") (Howard Blake) (3:22)
6. In Paradisum (Gabriel Fauré) (3:04)
7. The Lord Bless You And Keep You (John Rutter) (2:38)
8. Pie Jesu (Andrew Lloyd Webber) (3:32)
9. Danny Boy/Carrickfergus (4:12)
10. The Lord is My Shepherd (Psalm 23) (Theme from "The Vicar Of Dibley") (Howard Goodall) (2:59)
11. He Ain't Heavy, He's My Brother (B Scott & B Russell) (3:43)
12. Corpus Christi Carol (from "A Boy Was Born") (Benjamin Britten)(2:30)
13. O for the Wings of a Dove (F.Mendelsson Bartholdy) (5:08)
14. Agnus Dei (Lamb of God) (Martin Neary)(1:23)
15. Let There Be Peace On Earth (Sy Miller and Jill Jackson) (1:54)
16. Miserere (Gregorio Allegri) (11:46)
Доп. информация:
Musicians:
PATRICK ASPBURY, BEN INMAN, C J PORTER-THAW – trebles
HAYLEY WESTENRA (#4)
COLIN WALSH - organ, piano, celeste
MARTIN NEARY - piano
IAN TILLEY - piano, celeste
ALICE NEARY - cello (#3)
FIONA PEARS - violin (#4)
ENGLISH CHAMBER SINGERS & PLAYERS
MARTIN NEARY - conductor
Recorded at All Saints Church, Tooting, London, 27 July - 2 August 2005
© 2005 Universal Classics & Jazz. A Universal Music Company.

... back ...

EAC extraction logfile from 26. December 2010, 22:04

Exact Audio Copy V0.99 prebeta 4 from 23. January 2008
EAC extraction logfile from 26. December 2010, 22:04
The Choirboys / The Choirboys
Used drive : Optiarc DVD RW AD-7260S Adapter: 2 ID: 0
Read mode : Secure
Utilize accurate stream : Yes
Defeat audio cache : Yes
Make use of C2 pointers : No
Read offset correction : 48
Overread into Lead-In and Lead-Out : No
Fill up missing offset samples with silence : Yes
Delete leading and trailing silent blocks : No
Null samples used in CRC calculations : Yes
Used interface : Installed external ASPI interface
Gap handling : Appended to previous track
Used output format : User Defined Encoder
Selected bitrate : 128 kBit/s
Quality : High
Add ID3 tag : No
Command line compressor : D:\Program Files\Exact Audio Copy\Flac\flac.exe
Additional command line options : -8 -V -T "ARTIST=%a" -T "TITLE=%t" -T "ALBUM=%g" -T "DATE=%y" -T "TRACKNUMBER=%n" -T "GENRE=%m" -T "COMMENT=EAC FLAC -8" %s
TOC of the extracted CD
Track | Start | Length | Start sector | End sector
---------------------------------------------------------
1 | 0:00.00 | 2:00.35 | 0 | 9034
2 | 2:00.35 | 4:06.28 | 9035 | 27512
3 | 6:06.63 | 3:47.50 | 27513 | 44587
4 | 9:54.38 | 2:53.30 | 44588 | 57592
5 | 12:47.68 | 3:24.29 | 57593 | 72921
6 | 16:12.22 | 3:06.44 | 72922 | 86915
7 | 19:18.66 | 2:40.07 | 86916 | 98922
8 | 21:58.73 | 3:34.66 | 98923 | 115038
9 | 25:33.64 | 4:12.37 | 115039 | 133975
10 | 29:46.26 | 3:01.15 | 133976 | 147565
11 | 32:47.41 | 3:44.51 | 147566 | 164416
12 | 36:32.17 | 2:35.41 | 164417 | 176082
13 | 39:07.58 | 5:10.55 | 176083 | 199387
14 | 44:18.38 | 1:26.08 | 199388 | 205845
15 | 45:44.46 | 1:55.66 | 205846 | 214536
16 | 47:40.37 | 11:51.00 | 214537 | 267861
Track 1
Filename G:\TORRENTS.ru_Audio CD\#018_The Choirboys - The Choirboys (2005)\The Choirboys - The Choirboys (2005)\01 - Ecce Homo.wav
Pre-gap length 0:00:02.00
Peak level 100.0 %
Track quality 100.0 %
Test CRC F5491FBD
Copy CRC F5491FBD
Accurately ripped (confidence 10) [11FBC568]
Copy OK
Track 2
Filename G:\TORRENTS.ru_Audio CD\#018_The Choirboys - The Choirboys (2005)\The Choirboys - The Choirboys (2005)\02 - Tears in Heaven.wav
Peak level 80.4 %
Track quality 99.9 %
Test CRC BBA4A1E2
Copy CRC BBA4A1E2
Accurately ripped (confidence 10) [E3A08292]
Copy OK
Track 3
Filename G:\TORRENTS.ru_Audio CD\#018_The Choirboys - The Choirboys (2005)\The Choirboys - The Choirboys (2005)\03 - Panis Angelicus.wav
Peak level 94.7 %
Track quality 100.0 %
Test CRC 2C185973
Copy CRC 2C185973
Accurately ripped (confidence 10) [67EB2481]
Copy OK
Track 4
Filename G:\TORRENTS.ru_Audio CD\#018_The Choirboys - The Choirboys (2005)\The Choirboys - The Choirboys (2005)\04 - Do You Hear What I Hear.wav
Peak level 79.7 %
Track quality 100.0 %
Test CRC 781778BE
Copy CRC 781778BE
Accurately ripped (confidence 10) [9C35E796]
Copy OK
Track 5
Filename G:\TORRENTS.ru_Audio CD\#018_The Choirboys - The Choirboys (2005)\The Choirboys - The Choirboys (2005)\05 - Walking In The Air.wav
Peak level 88.4 %
Track quality 100.0 %
Test CRC D7C252C7
Copy CRC D7C252C7
Accurately ripped (confidence 10) [6CFA19B5]
Copy OK
Track 6
Filename G:\TORRENTS.ru_Audio CD\#018_The Choirboys - The Choirboys (2005)\The Choirboys - The Choirboys (2005)\06 - In Paradisum.wav
Peak level 97.8 %
Track quality 100.0 %
Test CRC AE066565
Copy CRC AE066565
Accurately ripped (confidence 10) [374BF3E9]
Copy OK
Track 7
Filename G:\TORRENTS.ru_Audio CD\#018_The Choirboys - The Choirboys (2005)\The Choirboys - The Choirboys (2005)\07 - The Lord Bless You And Keep You.wav
Peak level 89.1 %
Track quality 100.0 %
Test CRC 57AD43FE
Copy CRC 57AD43FE
Accurately ripped (confidence 10) [D71FAED9]
Copy OK
Track 8
Filename G:\TORRENTS.ru_Audio CD\#018_The Choirboys - The Choirboys (2005)\The Choirboys - The Choirboys (2005)\08 - Pie Jesu.wav
Peak level 88.3 %
Track quality 100.0 %
Test CRC 3BEB07B0
Copy CRC 3BEB07B0
Accurately ripped (confidence 10) [3816EC8B]
Copy OK
Track 9
Filename G:\TORRENTS.ru_Audio CD\#018_The Choirboys - The Choirboys (2005)\The Choirboys - The Choirboys (2005)\09 - Danny Boy , Carrickfergus.wav
Peak level 82.5 %
Track quality 100.0 %
Test CRC B72A5325
Copy CRC B72A5325
Accurately ripped (confidence 10) [01E37DDD]
Copy OK
Track 10
Filename G:\TORRENTS.ru_Audio CD\#018_The Choirboys - The Choirboys (2005)\The Choirboys - The Choirboys (2005)\10 - The Lord is My Shepherd.wav
Peak level 84.1 %
Track quality 100.0 %
Test CRC EFA1B48A
Copy CRC EFA1B48A
Accurately ripped (confidence 10) [3EB76E87]
Copy OK
Track 11
Filename G:\TORRENTS.ru_Audio CD\#018_The Choirboys - The Choirboys (2005)\The Choirboys - The Choirboys (2005)\11 - He Aint Heavy, Hes My Brother.wav
Peak level 95.8 %
Track quality 100.0 %
Test CRC ADF8909C
Copy CRC ADF8909C
Accurately ripped (confidence 10) [FB51CA45]
Copy OK
Track 12
Filename G:\TORRENTS.ru_Audio CD\#018_The Choirboys - The Choirboys (2005)\The Choirboys - The Choirboys (2005)\12 - Corpus Christi Carol.wav
Peak level 74.4 %
Track quality 100.0 %
Test CRC 56DD45D7
Copy CRC 56DD45D7
Accurately ripped (confidence 10) [C1E74A70]
Copy OK
Track 13
Filename G:\TORRENTS.ru_Audio CD\#018_The Choirboys - The Choirboys (2005)\The Choirboys - The Choirboys (2005)\13 - O for the Wings of a Dove.wav
Peak level 100.0 %
Track quality 100.0 %
Test CRC 35E30A42
Copy CRC 35E30A42
Accurately ripped (confidence 10) [24067F8C]
Copy OK
Track 14
Filename G:\TORRENTS.ru_Audio CD\#018_The Choirboys - The Choirboys (2005)\The Choirboys - The Choirboys (2005)\14 - Agnus Dei (Lamb of God).wav
Peak level 88.7 %
Track quality 100.0 %
Test CRC 294D6F37
Copy CRC 294D6F37
Accurately ripped (confidence 10) [FE551A03]
Copy OK
Track 15
Filename G:\TORRENTS.ru_Audio CD\#018_The Choirboys - The Choirboys (2005)\The Choirboys - The Choirboys (2005)\15 - Let There Be Peace On Earth.wav
Peak level 81.7 %
Track quality 99.9 %
Test CRC 2364F3B0
Copy CRC 2364F3B0
Accurately ripped (confidence 10) [9A6D9AEF]
Copy OK
Track 16
Filename G:\TORRENTS.ru_Audio CD\#018_The Choirboys - The Choirboys (2005)\The Choirboys - The Choirboys (2005)\16 - Miserere.wav
Peak level 98.2 %
Track quality 100.0 %
Test CRC 5D92CCF5
Copy CRC 5D92CCF5
Accurately ripped (confidence 9) [0D619F78]
Copy OK
All tracks accurately ripped
No errors occurred
End of status report

Содержание индексной карты (.CUE)

REM GENRE Crossover
REM DATE 2005
REM DISCID F80DF310
REM COMMENT "ExactAudioCopy v0.99pb4"
PERFORMER "The Choirboys"
TITLE "The Choirboys"
FILE "01 - Ecce Homo.wav" WAVE
TRACK 01 AUDIO
TITLE "Ecce Homo"
PERFORMER "The Choirboys"
INDEX 01 00:00:00
FILE "02 - Tears in Heaven.wav" WAVE
TRACK 02 AUDIO
TITLE "Tears in Heaven"
PERFORMER "The Choirboys"
INDEX 01 00:00:00
FILE "03 - Panis Angelicus.wav" WAVE
TRACK 03 AUDIO
TITLE "Panis Angelicus"
PERFORMER "The Choirboys"
INDEX 01 00:00:00
FILE "04 - Do You Hear What I Hear.wav" WAVE
TRACK 04 AUDIO
TITLE "Do You Hear What I Hear"
PERFORMER "The Choirboys"
INDEX 01 00:00:00
FILE "05 - Walking In The Air.wav" WAVE
TRACK 05 AUDIO
TITLE "Walking In The Air"
PERFORMER "The Choirboys"
INDEX 01 00:00:00
FILE "06 - In Paradisum.wav" WAVE
TRACK 06 AUDIO
TITLE "In Paradisum"
PERFORMER "The Choirboys"
INDEX 01 00:00:00
FILE "07 - The Lord Bless You And Keep You.wav" WAVE
TRACK 07 AUDIO
TITLE "The Lord Bless You And Keep You"
PERFORMER "The Choirboys"
INDEX 01 00:00:00
FILE "08 - Pie Jesu.wav" WAVE
TRACK 08 AUDIO
TITLE "Pie Jesu"
PERFORMER "The Choirboys"
INDEX 01 00:00:00
FILE "09 - Danny Boy , Carrickfergus.wav" WAVE
TRACK 09 AUDIO
TITLE "Danny Boy / Carrickfergus"
PERFORMER "The Choirboys"
INDEX 01 00:00:00
FILE "10 - The Lord is My Shepherd.wav" WAVE
TRACK 10 AUDIO
TITLE "The Lord is My Shepherd"
PERFORMER "The Choirboys"
INDEX 01 00:00:00
FILE "11 - He Aint Heavy, Hes My Brother.wav" WAVE
TRACK 11 AUDIO
TITLE "He Aint Heavy, Hes My Brother"
PERFORMER "The Choirboys"
INDEX 01 00:00:00
FILE "12 - Corpus Christi Carol.wav" WAVE
TRACK 12 AUDIO
TITLE "Corpus Christi Carol"
PERFORMER "The Choirboys"
INDEX 01 00:00:00
FILE "13 - O for the Wings of a Dove.wav" WAVE
TRACK 13 AUDIO
TITLE "O for the Wings of a Dove"
PERFORMER "The Choirboys"
INDEX 01 00:00:00
FILE "14 - Agnus Dei (Lamb of God).wav" WAVE
TRACK 14 AUDIO
TITLE "Agnus Dei (Lamb of God)"
PERFORMER "The Choirboys"
INDEX 01 00:00:00
FILE "15 - Let There Be Peace On Earth.wav" WAVE
TRACK 15 AUDIO
TITLE "Let There Be Peace On Earth"
PERFORMER "The Choirboys"
INDEX 01 00:00:00
FILE "16 - Miserere.wav" WAVE
TRACK 16 AUDIO
TITLE "Miserere"
PERFORMER "The Choirboys"
INDEX 01 00:00:00



Показать сообщения:    

Текущее время: 03-Дек 14:37

Часовой пояс: UTC + 3


Вы не можете начинать темы
Вы не можете отвечать на сообщения
Вы не можете редактировать свои сообщения
Вы не можете удалять свои сообщения
Вы не можете голосовать в опросах
Вы не можете прикреплять файлы к сообщениям
Вы не можете скачивать файлы