(Симфоническая музыка) П. И. Чайковский - Симфонические фрагменты из опер (Светланов) - 2005, FLAC (image+.cue), lossless


 

[Цитировать]

Чайковский - Симфонические фрагменты из опер (Светланов)
Жанр: Симфоническая музыка
Год выпуска диска: 2005
Производитель диска: Россия
Аудио кодек: FLAC
Тип рипа: image+.cue
Битрейт аудио: lossless
Продолжительность: 136:27
Государственный академический симфонический оркестр
Дирижер Евгений Светланов
Записи 1955-1992

(DDD/Stereo)

Трэклист

CD 1
Pyotr Il'yich Tchaikovsky The Voyevoda, opera, Op. 3 (Tchaikovsky destroyed; 3 pieces reconstructed by Lamm) (Overture) 11:02
Pyotr Il'yich Tchaikovsky The Voyevoda, opera, Op. 3 (Tchaikovsky destroyed; 3 pieces reconstructed by Lamm) (Act II. No. 4. Entr'acte and Lobby Maids Dance) 11:33
Pyotr Il'yich Tchaikovsky The Oprichnik, opera (Introduction) 6:10
Pyotr Il'yich Tchaikovsky The Oprichnik, opera (Act IV. No. 15. Oprichniks and Women's Dance) 5:37
Pyotr Il'yich Tchaikovsky Eugene Onegin, opera, Op. 24 (Introduction) 2:22
Pyotr Il'yich Tchaikovsky Eugene Onegin, opera, Op. 24 (Act II. No. 13. Waltz) 6:36
Pyotr Il'yich Tchaikovsky Eugene Onegin, opera, Op. 24 (Act III. No. 19. Polonaise) 5:00
Pyotr Il'yich Tchaikovsky Eugene Onegin, opera, Op. 24 (Act III. No. 21. Ecossaise) 2:04
Pyotr Il'yich Tchaikovsky The Maid of Orléans (Jeanne d'Arc), opera (Introduction) 9:10
Pyotr Il'yich Tchaikovsky The Maid of Orléans (Jeanne d'Arc), opera (Act IV. Entr'acte / Act II. No. 11. Danses) 2:40
Pyotr Il'yich Tchaikovsky The Maid of Orléans (Jeanne d'Arc), opera (Act II. No. 11. Danse des bohemians) 2:52
Pyotr Il'yich Tchaikovsky The Maid of Orléans (Jeanne d'Arc), opera (Act II. No. 11. Danse des pages et des nains) 3:53
Pyotr Il'yich Tchaikovsky The Maid of Orléans (Jeanne d'Arc), opera (Act II. No. 11. Danse des polichinelles et des histrions) 3:43
CD 2
Pyotr Il'yich Tchaikovsky Mazeppa, opera (Introduction) 7:31
Pyotr Il'yich Tchaikovsky Mazeppa, opera (Act I. No. 4. Gopak) 3:39
Pyotr Il'yich Tchaikovsky Mazeppa, opera (Act III. No. 15. Entr'acte the Poltava battle) 5:44
Pyotr Il'yich Tchaikovsky The Slippers (Oxana's Caprices), comic-fantasy opera, Op. 14 (revised version of "Vakula the Smith") (Overture) 9:47
Pyotr Il'yich Tchaikovsky The Slippers (Oxana's Caprices), comic-fantasy opera, Op. 14 (revised version of "Vakula the Smith") (Act III. No. 19. Polonaise) 6:14
Pyotr Il'yich Tchaikovsky The Slippers (Oxana's Caprices), comic-fantasy opera, Op. 14 (revised version of "Vakula the Smith") (Act III. No. 22 a, b. Danse russe et Dance des Cosaques) 7:26
Pyotr Il'yich Tchaikovsky The Sorceress (The Enchantress), opera (Introduction) 6:57
Pyotr Il'yich Tchaikovsky The Sorceress (The Enchantress), opera (Act I. No. 7 b. Dance des histrions) 3:13
Pyotr Il'yich Tchaikovsky The Sorceress (The Enchantress), opera (Act II. Entr'acte) 2:35
Pyotr Il'yich Tchaikovsky The Sorceress (The Enchantress), opera (Act II. Entr'acte) 3:57
Pyotr Il'yich Tchaikovsky Pique Dame (The Queen of Spades), opera, Op. 68 (Introduction) 4:11
Pyotr Il'yich Tchaikovsky Iolanta, opera, Op. 69 (Introduction) 2:31

logs

Exact Audio Copy V1.0 beta 4 from 7. December 2014
EAC extraction logfile from 28. April 2015, 18:43
Tchaikovsky / Svetlanov & State Academic Symphony Orchestra
Used drive : ATAPI iHAS124 A Adapter: 1 ID: 0
Read mode : Secure
Utilize accurate stream : Yes
Defeat audio cache : Yes
Make use of C2 pointers : No
Read offset correction : 6
Overread into Lead-In and Lead-Out : No
Fill up missing offset samples with silence : Yes
Delete leading and trailing silent blocks : No
Null samples used in CRC calculations : Yes
Used interface : Native Win32 interface for Win NT & 2000
Used output format : Internal WAV Routines
Sample format : 44.100 Hz; 16 Bit; Stereo
TOC of the extracted CD
Track | Start | Length | Start sector | End sector
---------------------------------------------------------
1 | 0:00.00 | 11:02.40 | 0 | 49689
2 | 11:02.40 | 11:33.40 | 49690 | 101704
3 | 22:36.05 | 6:10.70 | 101705 | 129524
4 | 28:47.00 | 5:37.20 | 129525 | 154819
5 | 34:24.20 | 2:22.58 | 154820 | 165527
6 | 36:47.03 | 6:36.72 | 165528 | 195299
7 | 43:24.00 | 5:00.27 | 195300 | 217826
8 | 48:24.27 | 2:04.36 | 217827 | 227162
9 | 50:28.63 | 9:10.70 | 227163 | 268482
10 | 59:39.58 | 2:40.67 | 268483 | 280549
11 | 62:20.50 | 2:52.33 | 280550 | 293482
12 | 65:13.08 | 3:53.20 | 293483 | 310977
13 | 69:06.28 | 3:43.35 | 310978 | 327737
Range status and errors
Selected range
Filename C:\Tchaikovsky - Svetlanov & State Academic Symphony Orchestra (CD 1)\Tchaikovsky - Svetlanov & State Academic Symphony Orchestra.wav
Peak level 99.2 %
Extraction speed 6.3 X
Range quality 100.0 %
Test CRC DCE45413
Copy CRC DCE45413
Copy OK
No errors occurred
AccurateRip summary
Track 1 accurately ripped (confidence 1) [CF62E5A3] (AR v2)
Track 2 accurately ripped (confidence 1) [26B15D98] (AR v2)
Track 3 accurately ripped (confidence 1) [12BD56D9] (AR v2)
Track 4 accurately ripped (confidence 1) [88FA8BEE] (AR v2)
Track 5 accurately ripped (confidence 1) [0F1580F6] (AR v2)
Track 6 accurately ripped (confidence 1) [481D0E2A] (AR v2)
Track 7 accurately ripped (confidence 1) [E050E727] (AR v2)
Track 8 accurately ripped (confidence 1) [92DA47BE] (AR v2)
Track 9 accurately ripped (confidence 1) [68064767] (AR v2)
Track 10 accurately ripped (confidence 1) [0836EFD7] (AR v2)
Track 11 accurately ripped (confidence 1) [6C443C8D] (AR v2)
Track 12 accurately ripped (confidence 1) [81E0FBDB] (AR v2)
Track 13 accurately ripped (confidence 1) [A1047D97] (AR v2)
All tracks accurately ripped
End of status report
---- CUETools DB Plugin V2.1.4
[CTDB TOCID: 5ntO8ltz46o1wGVFZ.U_vKb.0nc-] found
Submit result: already submitted
Track | CTDB Status
1 | (1/1) Accurately ripped
2 | (1/1) Accurately ripped
3 | (1/1) Accurately ripped
4 | (1/1) Accurately ripped
5 | (1/1) Accurately ripped
6 | (1/1) Accurately ripped
7 | (1/1) Accurately ripped
8 | (1/1) Accurately ripped
9 | (1/1) Accurately ripped
10 | (1/1) Accurately ripped
11 | (1/1) Accurately ripped
12 | (1/1) Accurately ripped
13 | (1/1) Accurately ripped
Exact Audio Copy V1.0 beta 4 from 7. December 2014
EAC extraction logfile from 28. April 2015, 19:02
Tchaikovsky / Svetlanov & State Academic Symphony Orchestra
Used drive : ATAPI iHAS124 A Adapter: 1 ID: 0
Read mode : Secure
Utilize accurate stream : Yes
Defeat audio cache : Yes
Make use of C2 pointers : No
Read offset correction : 6
Overread into Lead-In and Lead-Out : No
Fill up missing offset samples with silence : Yes
Delete leading and trailing silent blocks : No
Null samples used in CRC calculations : Yes
Used interface : Native Win32 interface for Win NT & 2000
Used output format : Internal WAV Routines
Sample format : 44.100 Hz; 16 Bit; Stereo
TOC of the extracted CD
Track | Start | Length | Start sector | End sector
---------------------------------------------------------
1 | 0:00.00 | 7:31.15 | 0 | 33839
2 | 7:31.15 | 3:39.05 | 33840 | 50269
3 | 11:10.20 | 5:44.15 | 50270 | 76084
4 | 16:54.35 | 9:47.62 | 76085 | 120171
5 | 26:42.22 | 6:14.30 | 120172 | 148251
6 | 32:56.52 | 7:26.17 | 148252 | 181718
7 | 40:22.69 | 6:57.67 | 181719 | 213060
8 | 47:20.61 | 3:13.13 | 213061 | 227548
9 | 50:33.74 | 2:35.57 | 227549 | 239230
10 | 53:09.56 | 3:57.00 | 239231 | 257005
11 | 57:06.56 | 4:11.05 | 257006 | 275835
12 | 61:17.61 | 2:31.71 | 275836 | 287231
Range status and errors
Selected range
Filename C:\Tchaikovsky - Svetlanov & State Academic Symphony Orchestra (CD 2)\Tchaikovsky - Svetlanov & State Academic Symphony Orchestra.wav
Peak level 98.2 %
Extraction speed 6.2 X
Range quality 100.0 %
Test CRC C03C864F
Copy CRC C03C864F
Copy OK
No errors occurred
AccurateRip summary
Track 1 accurately ripped (confidence 1) [F980B1C0] (AR v2)
Track 2 accurately ripped (confidence 1) [49D4D6CA] (AR v2)
Track 3 accurately ripped (confidence 1) [1F5E0A76] (AR v2)
Track 4 accurately ripped (confidence 1) [30BF32D5] (AR v2)
Track 5 accurately ripped (confidence 1) [DE4A2176] (AR v2)
Track 6 accurately ripped (confidence 1) [88AA22FA] (AR v2)
Track 7 accurately ripped (confidence 1) [891D5063] (AR v2)
Track 8 accurately ripped (confidence 1) [F0A8E7C1] (AR v2)
Track 9 accurately ripped (confidence 1) [E36124F3] (AR v2)
Track 10 accurately ripped (confidence 1) [350F498F] (AR v2)
Track 11 accurately ripped (confidence 1) [F524F402] (AR v2)
Track 12 accurately ripped (confidence 1) [FFA71058] (AR v2)
All tracks accurately ripped
End of status report
---- CUETools DB Plugin V2.1.4
[CTDB TOCID: 5t3H8p1ZkG1PngbA3LosBemE4y0-] found
Submit result: already submitted
Track | CTDB Status
1 | (1/1) Accurately ripped
2 | (1/1) Accurately ripped
3 | (1/1) Accurately ripped
4 | (1/1) Accurately ripped
5 | (1/1) Accurately ripped
6 | (1/1) Accurately ripped
7 | (1/1) Accurately ripped
8 | (1/1) Accurately ripped
9 | (1/1) Accurately ripped
10 | (1/1) Accurately ripped
11 | (1/1) Accurately ripped
12 | (1/1) Accurately ripped



Показать сообщения:    

Текущее время: 03-Дек 07:35

Часовой пояс: UTC + 3


Вы не можете начинать темы
Вы не можете отвечать на сообщения
Вы не можете редактировать свои сообщения
Вы не можете удалять свои сообщения
Вы не можете голосовать в опросах
Вы не можете прикреплять файлы к сообщениям
Вы не можете скачивать файлы