(Baroque) Vivaldi - Chamber Music with Wind Instruments {Camerata Koln} - 1986, FLAC (tracks+.cue), lossless


 

[Цитировать]

Camerata Koln - Vivaldi: Chamber Music with Wind Instruments
Жанр: Baroque
Страна-производитель диска: США
Год издания диска: 1986
Издатель (лейбл): Harmonia Mundi
Номер по каталогу: 77018-2-RG
Аудиокодек: FLAC
Тип рипа: tracks+.cue
Битрейт аудио: lossless
Продолжительность: 59:02
Источник (релизер): buttahyellah (what)
Наличие сканов в содержимом раздачи: сетевые
01. Quartet C major for Flute, Oboe, Bassoon and Bc: Largo-Allegro-Largo-Allegro (9:37)
02. Trio G minor for Recorder, Oboe and Bassoon, RV 103: Allegro ma cantabile-Largo-Allegro ma non molto (9:08)
03. Trio A minor for Recorder, Bassoon and Bc, RV 86: Largo-Allegro-Largo cantabile-Allegro molto (9:31)
04. Sonata C minor for Oboe and Bc, RV 53: Adagio-Allegro-Andante-Allegro (11:20)
05. Trio G major for 2 Flutes and Bc, RV 80: Allegro-Larghetto-Allegro (5:26)
06. Sonata G minor (from "Il pastor fido") for Recorder and Bc, RV 58: Vivace-Alla breve-Largo-Allegro ma non presto (7:54)
07. Trio G minor for 2 Oboes and Bc, RV 81: Allegro-Largo-Allegro (6:06)
Исполнители:
Camerata Köln:
Michael Schneider - recorder, transverse flute II
Karl Kaiser - transverse flute I
Hans-Peter Westermann - oboe I
Piet Dhont - oboe II
Michael McCraw - bassoon
Rainer Zipperling - cello, violone
Harald Hoeren - harpsichord

Лог создания рипа

X Lossless Decoder version 20141129a (148.2)
XLD extraction logfile from 2015-09-30 14:32:31 -0700
Camerata Köln / Vivaldi - Kammermusik Mit Bläsern
Used drive : HL-DT-ST DVDRW GX40N (revision RQ00)
Media type : Pressed CD
Ripper mode : XLD Secure Ripper
Disable audio cache : OK for the drive with a cache less than 1375KiB
Make use of C2 pointers : NO
Read offset correction : 6
Max retry count : 100
Gap status : Analyzed, Appended (except HTOA)
TOC of the extracted CD
Track | Start | Length | Start sector | End sector
---------------------------------------------------------
1 | 00:00:32 | 09:36:63 | 32 | 43294
2 | 09:37:20 | 09:07:72 | 43295 | 84391
3 | 18:45:17 | 09:31:03 | 84392 | 127219
4 | 28:16:20 | 11:20:02 | 127220 | 178221
5 | 39:36:22 | 05:26:15 | 178222 | 202686
6 | 45:02:37 | 07:53:55 | 202687 | 238216
7 | 52:56:17 | 06:05:70 | 238217 | 265661
AccurateRip Summary (DiscID: 0011640f-0066fa35-6e0dd607)
Track 01 : OK (v2, confidence 6/6)
Track 02 : OK (v2, confidence 6/6)
Track 03 : OK (v2, confidence 6/6)
Track 04 : OK (v2, confidence 6/6)
Track 05 : OK (v2, confidence 5/5)
Track 06 : OK (v2, confidence 5/5)
Track 07 : OK (v2, confidence 5/5)
->All tracks accurately ripped.
All Tracks
Album gain : 0.79 dB
Peak : 0.888550
Statistics
Read error : 0
Jitter error (maybe fixed) : 0
Retry sector count : 0
Damaged sector count : 0
Track 01
Filename : /Users/Shared/Camerata Köln - Vivaldi - Kammermusik Mit Bläsern (1986) [FLAC]/01 Quartett C-dur.flac
Pre-gap length : 00:02:32
Track gain : 0.37 dB
Peak : 0.888550
CRC32 hash (test run) : 65D5F83E
CRC32 hash : 65D5F83E
CRC32 hash (skip zero) : 0765BB80
AccurateRip v1 signature : 9E87F3C0
AccurateRip v2 signature : ACEEE6D5
->Accurately ripped (v2, confidence 6/6)
Statistics
Read error : 0
Jitter error (maybe fixed) : 0
Retry sector count : 0
Damaged sector count : 0
Track 02
Filename : /Users/Shared/Camerata Köln - Vivaldi - Kammermusik Mit Bläsern (1986) [FLAC]/02 Trio G-moll RV 103.flac
Track gain : 0.69 dB
Peak : 0.700745
CRC32 hash (test run) : 5DE84E3D
CRC32 hash : 5DE84E3D
CRC32 hash (skip zero) : B48656B7
AccurateRip v1 signature : F624BF8D
AccurateRip v2 signature : F7622CE6
->Accurately ripped (v2, confidence 6/6)
Statistics
Read error : 0
Jitter error (maybe fixed) : 0
Retry sector count : 0
Damaged sector count : 0
Track 03
Filename : /Users/Shared/Camerata Köln - Vivaldi - Kammermusik Mit Bläsern (1986) [FLAC]/03 Trio A-moll RV 86.flac
Track gain : 0.36 dB
Peak : 0.729187
CRC32 hash (test run) : A68706EA
CRC32 hash : A68706EA
CRC32 hash (skip zero) : DFFC9B00
AccurateRip v1 signature : 79056F70
AccurateRip v2 signature : 02601241
->Accurately ripped (v2, confidence 6/6)
Statistics
Read error : 0
Jitter error (maybe fixed) : 0
Retry sector count : 0
Damaged sector count : 0
Track 04
Filename : /Users/Shared/Camerata Köln - Vivaldi - Kammermusik Mit Bläsern (1986) [FLAC]/04 Sonata C-moll RV 53.flac
Track gain : 1.57 dB
Peak : 0.721039
CRC32 hash (test run) : C04DE220
CRC32 hash : C04DE220
CRC32 hash (skip zero) : 768FA593
AccurateRip v1 signature : 046C7036
AccurateRip v2 signature : 334EA02A
->Accurately ripped (v2, confidence 6/6)
Statistics
Read error : 0
Jitter error (maybe fixed) : 0
Retry sector count : 0
Damaged sector count : 0
Track 05
Filename : /Users/Shared/Camerata Köln - Vivaldi - Kammermusik Mit Bläsern (1986) [FLAC]/05 Trio G-dur RV 80.flac
Track gain : 0.14 dB
Peak : 0.714325
CRC32 hash (test run) : 2EFB85F2
CRC32 hash : 2EFB85F2
CRC32 hash (skip zero) : F5B9271B
AccurateRip v1 signature : DC62555C
AccurateRip v2 signature : C26D27CD
->Accurately ripped (v2, confidence 5/5)
Statistics
Read error : 0
Jitter error (maybe fixed) : 0
Retry sector count : 0
Damaged sector count : 0
Track 06
Filename : /Users/Shared/Camerata Köln - Vivaldi - Kammermusik Mit Bläsern (1986) [FLAC]/06 Sonate G-moll RV 58 'Il pastor fido'.flac
Track gain : 1.87 dB
Peak : 0.576080
CRC32 hash (test run) : 72B6E4B5
CRC32 hash : 72B6E4B5
CRC32 hash (skip zero) : 36260B09
AccurateRip v1 signature : A0F3759F
AccurateRip v2 signature : F22D7AC1
->Accurately ripped (v2, confidence 5/5)
Statistics
Read error : 0
Jitter error (maybe fixed) : 0
Retry sector count : 0
Damaged sector count : 0
Track 07
Filename : /Users/Shared/Camerata Köln - Vivaldi - Kammermusik Mit Bläsern (1986) [FLAC]/07 Trio G-moll RV 81.flac
Track gain : 0.91 dB
Peak : 0.755951
CRC32 hash (test run) : C204055B
CRC32 hash : C204055B
CRC32 hash (skip zero) : 022DD03D
AccurateRip v1 signature : C4B178CF
AccurateRip v2 signature : 7AC39B36
->Accurately ripped (v2, confidence 5/5)
Statistics
Read error : 0
Jitter error (maybe fixed) : 0
Retry sector count : 0
Damaged sector count : 0
No errors occurred
End of status report
-----BEGIN XLD SIGNATURE-----
qeGOD7HgMGe1YTg33uGd3kTqTJpfI6G0uCdM0ShLTJvAtZK.85YpgfojS3X2eeM2TBQhSXrZuk9o.Z8hoJRi2yQdubZmxgTpa4b7ov4
-----END XLD SIGNATURE-----

Содержание индексной карты (.CUE)

TITLE "Vivaldi: Chamber Music with Wind Instruments"
PERFORMER "Camerata Koln"
REM GENRE "Classical"
REM DATE "1986"
REM DISCID 6E0DD607
REM REPLAYGAIN_ALBUM_GAIN 0.79 dB
REM REPLAYGAIN_ALBUM_PEAK 0.888550
FILE "01 - Quartet C major for Flute, Oboe, Bassoon and Bc.flac" WAVE
TRACK 01 AUDIO
TITLE "Quartet C major for Flute, Oboe, Bassoon and Bc"
REM REPLAYGAIN_TRACK_GAIN 0.37 dB
REM REPLAYGAIN_TRACK_PEAK 0.888550
PREGAP 00:00:32
INDEX 01 00:00:00
FILE "02 - Trio G minor for Recorder, Oboe and Bassoon, RV 103.flac" WAVE
TRACK 02 AUDIO
TITLE "Trio G minor for Recorder, Oboe and Bassoon, RV 103"
REM REPLAYGAIN_TRACK_GAIN 0.69 dB
REM REPLAYGAIN_TRACK_PEAK 0.700745
INDEX 01 00:00:00
FILE "03 - Trio A minor for Recorder, Bassoon and Bc, RV 86.flac" WAVE
TRACK 03 AUDIO
TITLE "Trio A minor for Recorder, Bassoon and Bc, RV 86"
REM REPLAYGAIN_TRACK_GAIN 0.36 dB
REM REPLAYGAIN_TRACK_PEAK 0.729187
INDEX 01 00:00:00
FILE "04 - Sonata C minor for Oboe and Bc, RV 53.flac" WAVE
TRACK 04 AUDIO
TITLE "Sonata C minor for Oboe and Bc, RV 53"
REM REPLAYGAIN_TRACK_GAIN 1.57 dB
REM REPLAYGAIN_TRACK_PEAK 0.721039
INDEX 01 00:00:00
FILE "05 - Trio G major for 2 Flutes and Bc, RV 80.flac" WAVE
TRACK 05 AUDIO
TITLE "Trio G major for 2 Flutes and Bc, RV 80"
REM REPLAYGAIN_TRACK_GAIN 0.14 dB
REM REPLAYGAIN_TRACK_PEAK 0.714325
INDEX 01 00:00:00
FILE "06 - Sonata G minor (from 'Il pastor fido') for Recorder and Bc, RV 58.flac" WAVE
TRACK 06 AUDIO
TITLE "Sonata G minor (from 'Il pastor fido') for Recorder and Bc, RV 58"
REM REPLAYGAIN_TRACK_GAIN 1.87 dB
REM REPLAYGAIN_TRACK_PEAK 0.576080
INDEX 01 00:00:00
FILE "07 - Trio G minor for 2 Oboes and Bc, RV 81.flac" WAVE
TRACK 07 AUDIO
TITLE "Trio G minor for 2 Oboes and Bc, RV 81"
REM REPLAYGAIN_TRACK_GAIN 0.91 dB
REM REPLAYGAIN_TRACK_PEAK 0.755951
INDEX 01 00:00:00

Отчет CUETools

[CUETools log; Date: 26.01.2016 17:50:48; Version: 2.1.5]
Pregap length 00:00:32.
[CTDB TOCID: 78LwfZsN2BzExS8sN16pD_mZgjA-] found.
Track | CTDB Status
1 | (1/1) Accurately ripped
2 | (1/1) Accurately ripped
3 | (1/1) Accurately ripped
4 | (1/1) Accurately ripped
5 | (1/1) Accurately ripped
6 | (1/1) Accurately ripped
7 | (1/1) Accurately ripped
[AccurateRip ID: 0011640f-0066fa35-6e0dd607] found.
Track [ CRC | V2 ] Status
01 [9e87f3c0|aceee6d5] (0+6/6) Accurately ripped
02 [f624bf8d|f7622ce6] (0+6/6) Accurately ripped
03 [79056f70|02601241] (0+6/6) Accurately ripped
04 [046c7036|334ea02a] (0+6/6) Accurately ripped
05 [dc62555c|c26d27cd] (0+5/5) Accurately ripped
06 [a0f3759f|f22d7ac1] (0+5/5) Accurately ripped
07 [c4b178cf|7ac39b36] (0+5/5) Accurately ripped
Track Peak [ CRC32 ] [W/O NULL]
-- 88,8 [54A66670] [E1BACBBB]
01 88,8 [65D5F83E] [0765BB80]
02 70,0 [5DE84E3D] [B48656B7]
03 72,9 [A68706EA] [DFFC9B00]
04 72,1 [C04DE220] [768FA593]
05 71,4 [2EFB85F2] [F5B9271B]
06 57,6 [72B6E4B5] [36260B09]
07 75,5 [C204055B] [022DD03D]

Об альбоме (сборнике)

The lines are sharply etched, the balances superb, the pacing supple. In sum, here is an excellent CD of fine Baroque chamber music played in the authentic style.
S.L., Stereo-Review 10/1987
Vivaldians and original-instrument buffs will surely want this disc, and it is highly recommended. The sound is excellent.
Nils Anderson, Fanfare May-Jun 1990



Показать сообщения:    

Текущее время: 10-Дек 13:52

Часовой пояс: UTC + 3


Вы не можете начинать темы
Вы не можете отвечать на сообщения
Вы не можете редактировать свои сообщения
Вы не можете удалять свои сообщения
Вы не можете голосовать в опросах
Вы не можете прикреплять файлы к сообщениям
Вы не можете скачивать файлы