(Opera) G. Verdi - Otello (Vinay,Schoffler,Jaresch,Monthy) Furtwangler Staatsoper 1951 Live, MP3 (image+.cue), 320 kbps


Статистика раздачи [Обновить пиров]
Размер:  327 MB   |    Зарегистрирован:  8 месяцев 22 дня   |    Скачан:  0 раз

Полного источника не было: Никогда

Личеров:  3  [  0 KB/s  ]   Подробная статистика пиров
 
   
 
 
 

[Цитировать]

G. Verdi Otello (Vinay,Schoffler,Jaresch,Monthy) Furtwangler Staatsoper 1951 Live
Жанр: Opera
Производитель диска: Wiener
Аудио кодек: MP3
Тип рипа: image+.cue
Битрейт аудио: 320 kbps
Продолжительность: CD1 1h 8mn, CD2 1h 14mn
Композитор: Giuseppe Verdi(1813-1901)
Артисты:
Otello Ramon Vinay (Tenor)
Desdemona Dragica Martinis (Soprano)
Iago Paul Schoffler (Bass Baritone)
Cassio Anton Dermota (Tenor)
Emilia Sieglinde Wagner (Mezzo Soprano)
Roderigo August Jaresch (Tenor)
Lodovico Josef Greindl (Bass)
Montano Georg Monthy (Baritone)
Оркестр / хор: Chor der Wiener Staatsoper, Wiener Philharmoniker
Дирижер: Wilhelm Furtwängler

CUECD1

TITLE "1_2 Vinay Schoffler Jaresch Monthy"
PERFORMER "Verdi - Otello Furtwangler VPO VS"
REM ** Generated by CueMaster v1.6 **
REM Time : 70:20:00
REM Length: 4220 seconds
REM Year : 1951
REM Genre : Opera
REM DiscID: ca107a0e
FILE "CD1.mp3" MP3
TRACK 01 AUDIO
TITLE "Una vela"
PERFORMER "Atto Primo"
PREGAP 00:02:00
INDEX 01 00:00:00
TRACK 02 AUDIO
TITLE "Esultate L'orgoglio musulmano sepolto e in mar"
INDEX 01 04:17:20
TRACK 03 AUDIO
TITLE "Fuoco di gioia L'ilare vampa"
INDEX 01 08:56:13
TRACK 04 AUDIO
TITLE "Roderigo beviam qua la tazza Capitano"
INDEX 01 11:45:08
TRACK 05 AUDIO
TITLE "Abbasso le spade"
INDEX 01 18:57:00
TRACK 06 AUDIO
TITLE "Gia nella notte densa"
INDEX 01 23:09:63
TRACK 07 AUDIO
TITLE "no ti crucciar"
PERFORMER "Atto secondo"
INDEX 01 32:54:73
TRACK 08 AUDIO
TITLE "Vanne la tua meta gia vedo"
INDEX 01 35:21:23
TRACK 09 AUDIO
TITLE "Cio m'accora"
INDEX 01 41:23:25
TRACK 10 AUDIO
TITLE "D'un uom che geme sotto il to disdegno"
INDEX 01 50:21:70
TRACK 11 AUDIO
TITLE "Tu Indietro Fuggi"
INDEX 01 56:50:00
TRACK 12 AUDIO
TITLE "Era la notte Cassio dormia"
INDEX 01 61:25:20
TRACK 13 AUDIO
TITLE "Si pel ciel marmoreo giuro"
INDEX 01 65:31:17

CD2

TITLE "2_2 Wagner Martinis Dermota Greindl Bierbach"
PERFORMER "Verdi - Otello Furtwangler VPO VS"
REM ** Generated by CueMaster v1.6 **
REM Time : 74:37:00
REM Length: 4477 seconds
REM Year : 1951
REM Genre : Opera
REM DiscID: 93117b0b
FILE "CD2.mp3" MP3
TRACK 01 AUDIO
TITLE "La vedetta del porto ha segnalato"
PERFORMER "Atto Terzo"
PREGAP 00:02:00
INDEX 01 00:00:00
TRACK 02 AUDIO
TITLE "Il fazzoletto"
INDEX 01 01:22:30
TRACK 03 AUDIO
TITLE "Dio to giocondi o sposo dell'alma mia sovrano"
INDEX 01 02:34:65
TRACK 04 AUDIO
TITLE "Dio mi potevi scagliar tutti e mali"
INDEX 01 13:16:52
TRACK 05 AUDIO
TITLE "Vieni; l'aula e deserta"
INDEX 01 17:41:42
TRACK 06 AUDIO
TITLE "Il Doge ed il Senato salutano i'eroe"
INDEX 01 25:17:00
TRACK 07 AUDIO
TITLE "A terra si nel livido fanto"
INDEX 01 30:48:15
TRACK 08 AUDIO
TITLE "Era piu calmo"
PERFORMER "Atto Quarto"
INDEX 01 40:22:20
TRACK 09 AUDIO
TITLE "Mia madre aveva una povera ancella"
INDEX 01 44:32:70
TRACK 10 AUDIO
TITLE "Ave Maria piena di grazia"
INDEX 01 53:43:50
TRACK 11 AUDIO
TITLE "Tant'osi Niun mi tema"
INDEX 01 69:03:57
[teatrix.ru].t15571.torrent 
Торрент: Зарегистрирован [ 2016-03-15 12:28 ] · 8B64EF4703FCB6F43FBA16B9C526A8516A08A34B

Скачать .torrent

Скачать

13 KB

Статус: проверено
Скачан: 0 раз
Размер: 327 MB
terms.php



Быстрый ответ

Имя:

      
Для отправки сообщений необходимо включить JavaScript
Показать сообщения:    

Текущее время: 06-Дек 17:11

Часовой пояс: UTC + 3


Вы можете начинать темы
Вы можете отвечать на сообщения
Вы не можете редактировать свои сообщения
Вы не можете удалять свои сообщения
Вы не можете голосовать в опросах
Вы не можете прикреплять файлы к сообщениям
Вы можете скачивать файлы