(Neo-classical) Rondo Veneziano - Venezia 2000 - 1983, FLAC (image+.cue), lossless


 

[Цитировать]

Rondo Veneziano - Venezia 2000
Жанр: Neo-classical
Год выпуска диска: 1983
Производитель диска: Germany
Аудио кодек: FLAC
Тип рипа: image+.cue
Битрейт аудио: lossless
Продолжительность: 34:24
Трэклист:
01 - Sinfonia per un addio.(4:15)
02 - La serenissima.(2:01)
03 - Notte amalfitana.(3:08)
04 - Rondo' veneziano - 1.(2:24)
05 - Aria di festa.(0:58)
06 - Arlecchino.(2:07)
07 - Aria di festa.(1:14)
08 - Rondo' veneziano - 2.(0:54)
09 - San Marco - 1.(3:00)
10 - Canal grande.(2:35)
11 - Arabesco.(3:04)
12 - Scaramucce.(2:37)
13 - Giochi d' acqua.(1:58)
14 - San Marco - 2.(1:15)
15 - Colombina.(2:38)
Доп. информация:

Лог EAC

Exact Audio Copy V0.99 prebeta 4 from 23. January 2008
EAC extraction logfile from 20. October 2008, 13:39
Rondò Veneziano / Venezia 2000
Used drive : _NEC DVD_RW ND-3520A Adapter: 1 ID: 0
Read mode : Secure
Utilize accurate stream : Yes
Defeat audio cache : Yes
Make use of C2 pointers : No
Read offset correction : 48
Overread into Lead-In and Lead-Out : No
Fill up missing offset samples with silence : Yes
Delete leading and trailing silent blocks : No
Null samples used in CRC calculations : Yes
Used interface : Installed external ASPI interface
Used output format : Internal WAV Routines
Sample format : 44.100 Hz; 16 Bit; Stereo
TOC of the extracted CD
Track | Start | Length | Start sector | End sector
---------------------------------------------------------
1 | 0:00.00 | 4:15.65 | 0 | 19189
2 | 4:15.65 | 2:05.63 | 19190 | 28627
3 | 6:21.53 | 3:03.07 | 28628 | 42359
4 | 9:24.60 | 2:23.73 | 42360 | 53157
5 | 11:48.58 | 0:59.57 | 53158 | 57639
6 | 12:48.40 | 2:05.70 | 57640 | 67084
7 | 14:54.35 | 1:14.38 | 67085 | 72672
8 | 16:08.73 | 0:55.17 | 72673 | 76814
9 | 17:04.15 | 2:59.13 | 76815 | 90252
10 | 20:03.28 | 2:35.37 | 90253 | 101914
11 | 22:38.65 | 3:03.53 | 101915 | 115692
12 | 25:42.43 | 2:37.55 | 115693 | 127522
13 | 28:20.23 | 1:58.12 | 127523 | 136384
14 | 30:18.35 | 1:16.03 | 136385 | 142087
15 | 31:34.38 | 2:50.17 | 142088 | 154854
Range status and errors
Selected range
Filename E:\Rondò Veneziano - Venezia 2000 (1983)\Rondò Veneziano - Venezia 2000.wav
Peak level 94.1 %
Range quality 100.0 %
Copy CRC BDE84739
Copy OK
No errors occurred
AccurateRip summary
Track 1 accurately ripped (confidence 6) [9C237632]
Track 2 accurately ripped (confidence 6) [45459E37]
Track 3 accurately ripped (confidence 6) [AEF84A7A]
Track 4 accurately ripped (confidence 6) [DB4205EE]
Track 5 accurately ripped (confidence 6) [56E703F3]
Track 6 accurately ripped (confidence 6) [E001BF7F]
Track 7 accurately ripped (confidence 6) [47D43072]
Track 8 accurately ripped (confidence 6) [CA5D41AB]
Track 9 accurately ripped (confidence 6) [DF074666]
Track 10 accurately ripped (confidence 6) [267A2708]
Track 11 accurately ripped (confidence 6) [4E376963]
Track 12 accurately ripped (confidence 6) [EE71BFA1]
Track 13 accurately ripped (confidence 6) [5065B4E6]
Track 14 accurately ripped (confidence 6) [EE675DFA]
Track 15 accurately ripped (confidence 6) [60A36A98]
All tracks accurately ripped
End of status report

скрытый текст

История «Rondo Veneziano» берет свое начало в ранних 80-ых. Джан Пьеро Ревербери, уже известный как композитор, аранжировщик и продюссер известных итальянских артистов, решает создать группу из студентов различных итальянских Консерваторий. Коллектив получил название «Rondo Veneziano», сам Джан Пьеро и не подозревал, что именно этот проект сделает его известным во всем мире. Первоначально группа представляла из себя камерный оркестр, но позднее, с добавлением в свое звучание больше ритмичных элементов, она превратилась в нечто более, чем камерный оркестр. Главная характеристика группы – музыкальные новшества в сочетании с классическими элементами и безупречность репертуара. Иногда группа исполняет классическую музыку Бетховена, Вивальди, Моцарта и Баха, но в основном музыканты концентрируются на собственных произведениях. Неоднократно альбомы группы «Rondo Veneziano» получали статус «золота» и «платины». Статистика их продаж первышала цифру в 25 миллионов экземпляров по всей Европе. История «Rondo Veneziano» продолжается...



Показать сообщения:    

Текущее время: 07-Дек 19:30

Часовой пояс: UTC + 3


Вы не можете начинать темы
Вы не можете отвечать на сообщения
Вы не можете редактировать свои сообщения
Вы не можете удалять свои сообщения
Вы не можете голосовать в опросах
Вы не можете прикреплять файлы к сообщениям
Вы не можете скачивать файлы