(Classic, Electronic music) Maksim Mrvica - The Piano Player - 2003, FLAC (tracks+.cue), lossless


 

[Цитировать]

Maksim Mrvica - The Piano Player
Жанр: Classic, Electronic music
Год выпуска диска: 2003
Производитель диска: Хорватия
Аудио кодек: FLAC
Тип рипа: tracks+.cue
Битрейт аудио: lossless
Продолжительность: 55:04
Трэклист:
"Flight of the Bumble-Bee" – 4:25 (Nikolai Rimsky-Korsakov / Jeff Wayne)
"Grieg's Piano Concerto in A Minor" – 4:04 (Edvard Grieg)
"Exodus" – 3:09 (Ernest Gold)
"Claudine" – 4:29 (Tonci Huljic)
"Wonderland" – 3:38 (Tonci Huljic)
"Handel's Sarabande" – 3:37 (George Frideric Handel)
"Rhapsody on a Theme of Paganini" – 10:08 (Sergei Rachmaninov / Jeff Wayne)
"Hana's Eyes" – 4:31 (Tonci Huljic)
"Chopin's Revolutionary Etude in C Minor" – 3:52 (Frédéric Chopin)
"Cubana" – 3:08 (Tonci Huljic)
"Croatian Rhapsody" – 3:32 (Tonci Huljic)
"Dance of the Baroness" – 2:51 (Frano Parac)
"Cubana Cubana" – 3:28 (Bonus Track) (Tonci Huljic)
Доп. информация: Maksim Mrvica
Биография
Максим Мрвица родился в 1975 году в небольшой городке Сибеник, расположенном на берегу Адриатического моря. С 9 лет он начал играть на рояле, и в тот же год имел свой первый открытый концерт. Спустя всего три года талантливый Максим уже умел совместно с симфоническим оркестром исполнять фортепьянный концерт Гайдна. Но путь к дальнейшему успеху был действительно нелегким. В 1990 году началась гражданская война в Югославии. Максим и его профессор Мария Сеско (Marija Sesko) все еще продолжили репетиции игры на рояле. Несмотря на сложную ситуацию, Максим в 1993 году получил первую в его жизни премию на фестивале в городе Загреб, в северо-восточной Югославии. Следующие 5 лет он учился в музыкальном институте Загреба под руководством профессора Владимира Крпана (Vladimir Krpan). Потом В 1999 году он поступил в знаменитого консерваторию имени Ферения Листа в Будапеште. Во время учебы он занял первое место на Международном конкурсе игры на фортепьяно имени Николая Рубинштейна. (Nicolai Rubinstein International Piano Competition). В 2000 году он переселился в Париж и стал учеником профессора Игоря Лазко (Igor Lazko), а через год победил еще на одном конкурсе пианино в столице Франции. (Pontoise Piano Competition)
Если судить по внешности, то наверное, никто не свяжет облик Максима с пианистом-исполнителем классической музыки. Рост у него примерно 2 метра; лицо, одно из тех, которые очень характерны для жителей Восточной Европы; крашеные прядями волосы; модная одежда…
Эта хорватская музыкальная звезда всегда трактует классическую музыку особенным образом. Для привлечения зрителей Максим в ходе своих выступлений сочетает серьезную классическую музыку с современными мотивами и сценическими эффектами. Итак, на его концертах можно наблюдать такие чудесные зрительные эффекты, как проекция его выступления на экран, лазерное шоу и дымы. Одновременно, его красивое лицо и модная, броская одежда тоже нравятся миллионной молодежи. Но самое главное, это то, что этот хорватский пианист при любом исполнении демонстрирует мощь самой музыки.
В 2001 году Максим Мрвица выпустил свой первый диск, в котором исполнил классические произведения современных хорватских фортепьянных музыкантов. Когда диск вышел в свет, он никак не мог предвидеть будущий успех. «Думал, самое больше, мы сумеем продать несколько копии, а затем, остальные будут лежать на полке и пылиться», - вспоминал Максим. Но на самом деле его первый диск стал одним из самых популярных дисков классической музыки в истории Хорватии; благодаря этому диску, его даже наградили четырьмя музыкальными премиями «Порин», это Хорватский Гремми. Он получил и Премию за лучший диск классической музыки. Кроме того, Максиму предложили исполнить песню этого диска «Танец баренессы» на церемонии награждения. Ведь это очень почетно, поскольку в обычном случае, классических музыкантов не приглашают для исполнения произведений на самой церемонии. Его исполнение потрясло всех.
Сразу же талантливость Максима привлекла внмание хорватского музыканта Тонки Халдика (Tonci Huljic). Он представил его известному импресарио Мелу Бушу (Mel Bush), который успешно продвигал популярную скрипачку Ванессу Мэй (Vanessa-mae). И нетрудно понять, что Максима ждет более блестящее будущее.

log

X Lossless Decoder version 20090320 (105.1)
XLD extraction logfile from 2009-05-06 23:21:02 +0900
Maksim / The Piano Player
Used drive : HL-DT-ST DVDRW GS21N (revision SA17)
Use cdparanoia mode : YES (CDParanoia III 10.2 engine)
Disable audio cache : OK for the drive with cache less than 2750KB
Make use of C2 pointers : NO
Read offset correction : 667
Max retry count : 100
TOC of the extracted CD
Track | Start | Length | Start sector | End sector
---------------------------------------------------------
1 | 00:00:00 | 04:25:15 | 0 | 19889
2 | 04:25:15 | 04:06:05 | 19890 | 38344
3 | 08:31:20 | 03:10:05 | 38345 | 52599
4 | 11:41:25 | 04:30:02 | 52600 | 72851
5 | 16:11:27 | 03:40:20 | 72852 | 89371
6 | 19:51:47 | 03:37:73 | 89372 | 105719
7 | 23:29:45 | 10:07:47 | 105720 | 151291
8 | 33:37:17 | 04:32:50 | 151292 | 171741
9 | 38:09:67 | 03:52:43 | 171742 | 189184
10 | 42:02:35 | 03:09:60 | 189185 | 203419
11 | 45:12:20 | 03:32:27 | 203420 | 219346
12 | 48:44:47 | 02:51:70 | 219347 | 232241
13 | 51:36:42 | 03:28:28 | 232242 | 247869
14 | 57:36:70 | 16:21:05 | 259270 | 332849
Track 01
Filename : /Volumes/Seagate FreeAgent Media/Trackers/What.cd.upload/Maksim - The Piano Player/01 - The Flight Of The Bumble-Bee.flac
CRC32 hash (test run) : 38347784
CRC32 hash : 38347784
CRC32 hash (skip zero) : C12574AC
AccurateRip signature : 61ADD3D0
->Track not present in AccurateRip database.
Statistics
Read error : 0
Skipped (treated as error) : 0
Edge jitter error (maybe fixed) : 0
Atom jitter error (maybe fixed) : 0
Drift error (maybe fixed) : 0
Dropped bytes error (maybe fixed) : 0
Duplicated bytes error (maybe fixed) : 0
Inconsistency in error sectors : 0
Track 02
Filename : /Volumes/Seagate FreeAgent Media/Trackers/What.cd.upload/Maksim - The Piano Player/02 - Grieg's Piano Concerto In A Minor.flac
CRC32 hash (test run) : 7BD46FC2
CRC32 hash : 7BD46FC2
CRC32 hash (skip zero) : D287C6D1
AccurateRip signature : 9821EB6F
->Track not present in AccurateRip database.
Statistics
Read error : 0
Skipped (treated as error) : 0
Edge jitter error (maybe fixed) : 0
Atom jitter error (maybe fixed) : 0
Drift error (maybe fixed) : 0
Dropped bytes error (maybe fixed) : 0
Duplicated bytes error (maybe fixed) : 0
Inconsistency in error sectors : 0
Track 03
Filename : /Volumes/Seagate FreeAgent Media/Trackers/What.cd.upload/Maksim - The Piano Player/03 - Exodus.flac
CRC32 hash (test run) : BB913653
CRC32 hash : BB913653
CRC32 hash (skip zero) : BB505D4D
AccurateRip signature : 69C9EFB2
->Track not present in AccurateRip database.
Statistics
Read error : 0
Skipped (treated as error) : 0
Edge jitter error (maybe fixed) : 0
Atom jitter error (maybe fixed) : 0
Drift error (maybe fixed) : 0
Dropped bytes error (maybe fixed) : 0
Duplicated bytes error (maybe fixed) : 0
Inconsistency in error sectors : 0
Track 04
Filename : /Volumes/Seagate FreeAgent Media/Trackers/What.cd.upload/Maksim - The Piano Player/04 - Claudine.flac
CRC32 hash (test run) : E32DD032
CRC32 hash : E32DD032
CRC32 hash (skip zero) : 1A562A6E
AccurateRip signature : A7B43D9D
->Track not present in AccurateRip database.
Statistics
Read error : 0
Skipped (treated as error) : 0
Edge jitter error (maybe fixed) : 0
Atom jitter error (maybe fixed) : 0
Drift error (maybe fixed) : 0
Dropped bytes error (maybe fixed) : 0
Duplicated bytes error (maybe fixed) : 0
Inconsistency in error sectors : 0
Track 05
Filename : /Volumes/Seagate FreeAgent Media/Trackers/What.cd.upload/Maksim - The Piano Player/05 - Wonderland.flac
CRC32 hash (test run) : 4EAEE5CE
CRC32 hash : 4EAEE5CE
CRC32 hash (skip zero) : 1B88CA10
AccurateRip signature : 390D458F
->Track not present in AccurateRip database.
Statistics
Read error : 0
Skipped (treated as error) : 0
Edge jitter error (maybe fixed) : 0
Atom jitter error (maybe fixed) : 0
Drift error (maybe fixed) : 0
Dropped bytes error (maybe fixed) : 0
Duplicated bytes error (maybe fixed) : 0
Inconsistency in error sectors : 0
Track 06
Filename : /Volumes/Seagate FreeAgent Media/Trackers/What.cd.upload/Maksim - The Piano Player/06 - Handel's Sarabande.flac
CRC32 hash (test run) : DC242217
CRC32 hash : DC242217
CRC32 hash (skip zero) : 124107C0
AccurateRip signature : 02E600F2
->Track not present in AccurateRip database.
Statistics
Read error : 0
Skipped (treated as error) : 0
Edge jitter error (maybe fixed) : 0
Atom jitter error (maybe fixed) : 0
Drift error (maybe fixed) : 0
Dropped bytes error (maybe fixed) : 0
Duplicated bytes error (maybe fixed) : 0
Inconsistency in error sectors : 0
Track 07
Filename : /Volumes/Seagate FreeAgent Media/Trackers/What.cd.upload/Maksim - The Piano Player/07 - Rhapsody On A Theme Of Paganini.flac
CRC32 hash (test run) : A92D65D9
CRC32 hash : A92D65D9
CRC32 hash (skip zero) : 5127628C
AccurateRip signature : 895294FC
->Track not present in AccurateRip database.
Statistics
Read error : 0
Skipped (treated as error) : 0
Edge jitter error (maybe fixed) : 0
Atom jitter error (maybe fixed) : 0
Drift error (maybe fixed) : 0
Dropped bytes error (maybe fixed) : 0
Duplicated bytes error (maybe fixed) : 0
Inconsistency in error sectors : 0
Track 08
Filename : /Volumes/Seagate FreeAgent Media/Trackers/What.cd.upload/Maksim - The Piano Player/08 - Hana's Eyes.flac
CRC32 hash (test run) : 8639BF6F
CRC32 hash : 8639BF6F
CRC32 hash (skip zero) : DFE2F6D7
AccurateRip signature : 47D1C556
->Track not present in AccurateRip database.
Statistics
Read error : 0
Skipped (treated as error) : 0
Edge jitter error (maybe fixed) : 0
Atom jitter error (maybe fixed) : 0
Drift error (maybe fixed) : 0
Dropped bytes error (maybe fixed) : 0
Duplicated bytes error (maybe fixed) : 0
Inconsistency in error sectors : 0
Track 09
Filename : /Volumes/Seagate FreeAgent Media/Trackers/What.cd.upload/Maksim - The Piano Player/09 - Chopin's Revolutionary Etude In C Minor.flac
CRC32 hash (test run) : 1BC9593D
CRC32 hash : 1BC9593D
CRC32 hash (skip zero) : FA99057A
AccurateRip signature : 6EC0D6FC
->Track not present in AccurateRip database.
Statistics
Read error : 0
Skipped (treated as error) : 0
Edge jitter error (maybe fixed) : 0
Atom jitter error (maybe fixed) : 0
Drift error (maybe fixed) : 0
Dropped bytes error (maybe fixed) : 0
Duplicated bytes error (maybe fixed) : 0
Inconsistency in error sectors : 0
Track 10
Filename : /Volumes/Seagate FreeAgent Media/Trackers/What.cd.upload/Maksim - The Piano Player/10 - Cubana.flac
CRC32 hash (test run) : 946014E4
CRC32 hash : 946014E4
CRC32 hash (skip zero) : 0A3167DB
AccurateRip signature : F214E21E
->Track not present in AccurateRip database.
Statistics
Read error : 0
Skipped (treated as error) : 0
Edge jitter error (maybe fixed) : 0
Atom jitter error (maybe fixed) : 0
Drift error (maybe fixed) : 0
Dropped bytes error (maybe fixed) : 0
Duplicated bytes error (maybe fixed) : 0
Inconsistency in error sectors : 0
Track 11
Filename : /Volumes/Seagate FreeAgent Media/Trackers/What.cd.upload/Maksim - The Piano Player/11 - Croatian Rhapsody.flac
CRC32 hash (test run) : 636D6F1E
CRC32 hash : 636D6F1E
CRC32 hash (skip zero) : 5134D41E
AccurateRip signature : 66384724
->Track not present in AccurateRip database.
Statistics
Read error : 0
Skipped (treated as error) : 0
Edge jitter error (maybe fixed) : 0
Atom jitter error (maybe fixed) : 0
Drift error (maybe fixed) : 0
Dropped bytes error (maybe fixed) : 0
Duplicated bytes error (maybe fixed) : 0
Inconsistency in error sectors : 0
Track 12
Filename : /Volumes/Seagate FreeAgent Media/Trackers/What.cd.upload/Maksim - The Piano Player/12 - Dance Of The Baroness.flac
CRC32 hash (test run) : 75167652
CRC32 hash : 75167652
CRC32 hash (skip zero) : 9ABE294A
AccurateRip signature : A1672B74
->Track not present in AccurateRip database.
Statistics
Read error : 0
Skipped (treated as error) : 0
Edge jitter error (maybe fixed) : 0
Atom jitter error (maybe fixed) : 0
Drift error (maybe fixed) : 0
Dropped bytes error (maybe fixed) : 0
Duplicated bytes error (maybe fixed) : 0
Inconsistency in error sectors : 0
Track 13
Filename : /Volumes/Seagate FreeAgent Media/Trackers/What.cd.upload/Maksim - The Piano Player/13 - Cubana Cubana (Bonus Track).flac
CRC32 hash (test run) : F35F5970
CRC32 hash : F35F5970
CRC32 hash (skip zero) : BCA8EE3A
AccurateRip signature : 681035C6
->Track not present in AccurateRip database.
Statistics
Read error : 0
Skipped (treated as error) : 0
Edge jitter error (maybe fixed) : 0
Atom jitter error (maybe fixed) : 0
Drift error (maybe fixed) : 0
Dropped bytes error (maybe fixed) : 0
Duplicated bytes error (maybe fixed) : 0
Inconsistency in error sectors : 0
No errors occurred
End of status report

CUE

TITLE "The Piano Player"
PERFORMER "Maksim"
CATALOG 0724355746122
REM GENRE "Crossover"
REM DATE 2003
FILE "01 - The Flight Of The Bumble-Bee.wav" WAVE
TRACK 01 AUDIO
TITLE "The Flight Of The Bumble-Bee"
ISRC GBAYC0203606
INDEX 01 00:00:00
FILE "02 - Grieg's Piano Concerto In A Minor.wav" WAVE
TRACK 02 AUDIO
TITLE "Grieg's Piano Concerto In A Minor"
ISRC GBAYC0203607
INDEX 01 00:00:00
TRACK 03 AUDIO
TITLE "Exodus"
ISRC GBAYC0203608
INDEX 00 04:04:45
FILE "03 - Exodus.wav" WAVE
INDEX 01 00:00:00
TRACK 04 AUDIO
TITLE "Claudine"
ISRC GBAYC0203609
INDEX 00 03:09:20
FILE "04 - Claudine.wav" WAVE
INDEX 01 00:00:00
TRACK 05 AUDIO
TITLE "Wonderland"
ISRC GBAYC0203610
INDEX 00 04:29:40
FILE "05 - Wonderland.wav" WAVE
INDEX 01 00:00:00
TRACK 06 AUDIO
TITLE "Handel's Sarabande"
ISRC GBAYC0203611
INDEX 00 03:38:40
FILE "06 - Handel's Sarabande.wav" WAVE
INDEX 01 00:00:00
TRACK 07 AUDIO
TITLE "Rhapsody On A Theme Of Paganini"
ISRC GBAYC0203612
INDEX 00 03:37:05
FILE "07 - Rhapsody On A Theme Of Paganini.wav" WAVE
INDEX 01 00:00:00
FILE "08 - Hana's Eyes.wav" WAVE
TRACK 08 AUDIO
TITLE "Hana's Eyes"
ISRC GBAYC0203613
INDEX 01 00:00:00
TRACK 09 AUDIO
TITLE "Chopin's Revolutionary Etude In C Minor"
ISRC GBAYC0203614
INDEX 00 04:31:70
FILE "09 - Chopin's Revolutionary Etude In C Minor.wav" WAVE
INDEX 01 00:00:00
TRACK 10 AUDIO
TITLE "Cubana"
ISRC GBAYC0203615
INDEX 00 03:52:28
FILE "10 - Cubana.wav" WAVE
INDEX 01 00:00:00
TRACK 11 AUDIO
TITLE "Croatian Rhapsody"
ISRC GBAYC0203616
INDEX 00 03:08:02
FILE "11 - Croatian Rhapsody.wav" WAVE
INDEX 01 00:00:00
FILE "12 - Dance Of The Baroness.wav" WAVE
TRACK 12 AUDIO
TITLE "Dance Of The Baroness"
ISRC GBAYC0203617
INDEX 01 00:00:00
TRACK 13 AUDIO
TITLE "Cubana Cubana (Bonus Track)"
ISRC GBAYC0203619
INDEX 00 02:51:30
FILE "13 - Cubana Cubana (Bonus Track).wav" WAVE
INDEX 01 00:00:00

AccurateRip

rip not accurate.
[Verification date: 27.11.2009 8:54:46]
[Disc ID: 001cab49-0125018a-bc11560e]
CD-Extra data track length 16:21:05.
Track [ CRC ] Status
01 [61add3d0] (00/00) No matches
02 [9821eb6f] (00/00) No matches
03 [69c9efb2] (02/02) Partial match
04 [a7b43d9d] (00/00) No matches
05 [390d458f] (02/02) Accurately ripped
06 [02e600f2] (02/02) Accurately ripped
07 [895294fc] (00/00) No matches
08 [47d1c556] (00/00) No matches
09 [6ec0d6fc] (02/02) Accurately ripped
10 [f214e21e] (00/00) No matches
11 [66384724] (02/02) Accurately ripped
12 [a1672b74] (02/02) Partial match
13 [681035c6] (00/00) No matches
Track [ CRC32 ] [W/O NULL]
-- [EB5B4E7C] [2205792A]
01 [38347784] [C12574AC]
02 [7BD46FC2] [D287C6D1]
03 [BB913653] [BB505D4D]
04 [E32DD032] [1A562A6E]
05 [4EAEE5CE] [1B88CA10]
06 [DC242217] [124107C0]
07 [A92D65D9] [5127628C]
08 [8639BF6F] [DFE2F6D7]
09 [1BC9593D] [FA99057A]
10 [946014E4] [0A3167DB]
11 [636D6F1E] [5134D41E]
12 [75167652] [9ABE294A]
13 [F35F5970] [BCA8EE3A]

spektr

Источник

what.cd



Показать сообщения:    

Текущее время: 11-Дек 11:05

Часовой пояс: UTC + 3


Вы не можете начинать темы
Вы не можете отвечать на сообщения
Вы не можете редактировать свои сообщения
Вы не можете удалять свои сообщения
Вы не можете голосовать в опросах
Вы не можете прикреплять файлы к сообщениям
Вы не можете скачивать файлы