(Классика в современной обработке) Rondo Veneziano - The Best Of Rondo Veneziano - Vol. 1 - 1996, FLAC (image+.cue), lossless


 

[Цитировать]

Rondo Veneziano - The Best Of Rondo Veneziano - Vol. 1
Жанр: Классика в современной обработке
Год выпуска диска: 1996
Производитель диска: DG-Records, Russia
Аудио кодек: FLAC
Тип рипа: image+.cue
Битрейт аудио: lossless
Продолжительность: 1:02:38
Трэклист:
1. Rondò Veneziano 03:30
2. Musica ... Fantasia 02:50
3. Scaramucce 02:55
4. Bettina 03:09
5. Stagioni Di Venezia 03:11
6. La Serenissima 02:12
7. Colombina 03:05
8. Estro Armonico 04:43
9. Rialto 03:00
10. Arlecchino 02:07
11. Fantasia Veneziana (In La Maggiore) 03:37
12. Divertissement 03:19
13. Die Zauberflöte (Part 1) 03:55
14. Die Zauberflöte (Part 2) 04:00
15. Preludio All' Amore 02:57
16. Donna Lucrezia 02:57
17. Don Giovanni 07:25
18. La Giudecca 02:49

Отчет ЕАС

Exact Audio Copy V0.99 prebeta 4 from 23. January 2008
Отчёт EAC об извлечении, выполненном 21. декабря 2009, 21:59
Rondт Veneziano / The Best Of Rondo Veneziano - Vol. 1
Дисковод: ATAPI DVD A DH20A4P Adapter: 1 ID: 0
Режим чтения : Достоверность
Использование точного потока : Да
Отключение кэша аудио : Да
Использование указателей C2 : Нет
Коррекция смещения при чтении : 6
Способность читать области Lead-in и Lead-out : Нет
Заполнение пропущенных сэмплов тишиной : Да
Удаление блоков с тишиной в начале и конце : Нет
При вычислениях CRC использовались нулевые сэмплы : Да
Интерфейс : Встроенный Win32-интерфейс для Win NT/2000
Выходной формат : Пользовательский кодировщик
Выбранный битрейт : 1024 kBit/s
Качество : Высокий
Добавление ID3-тэга : Нет
Утилита сжатия : D:\Programs\Exact Audio Copy\wavpack-4.60.1\wavpack.exe
TOC извлечённого CD
Трек | Старт | Длительность | Начальный сектор | Конечный сектор
---------------------------------------------------------------------
1 | 0:00.25 | 3:30.50 | 25 | 15824
2 | 3:31.00 | 2:53.00 | 15825 | 28799
3 | 6:24.00 | 2:57.62 | 28800 | 42136
4 | 9:21.62 | 3:12.63 | 42137 | 56599
5 | 12:34.50 | 3:14.25 | 56600 | 71174
6 | 15:49.00 | 2:16.37 | 71175 | 81411
7 | 18:05.37 | 3:07.38 | 81412 | 95474
8 | 21:13.00 | 4:45.50 | 95475 | 116899
9 | 25:58.50 | 3:02.50 | 116900 | 130599
10 | 29:01.25 | 2:12.25 | 130600 | 140524
11 | 31:13.50 | 3:41.25 | 140525 | 157124
12 | 34:55.00 | 3:22.37 | 157125 | 172311
13 | 38:17.37 | 3:56.03 | 172312 | 190014
14 | 42:13.40 | 4:02.22 | 190015 | 208186
15 | 46:15.62 | 3:02.38 | 208187 | 221874
16 | 49:18.25 | 3:04.00 | 221875 | 235674
17 | 52:22.25 | 7:27.37 | 235675 | 269236
18 | 59:49.62 | 2:49.38 | 269237 | 281949
Характеристики диапазона извлечения и сообщения об ошибках
Выбранный диапазон
Имя файла D:\МУЗЫКА-ТОРРЕНТ\Rondт Veneziano - The Best Of Rondo Veneziano - Vol. 1\Rondт Veneziano - The Best Of Rondo Veneziano - Vol. 1.wav
Пиковый уровень 97.5 %
Качество диапазона 100.0 %
CRC теста 24958CE6
CRC копии 24958CE6
Копирование... OK
Ошибок не произошло
Конец отчёта

back




Показать сообщения:    

Текущее время: 11-Дек 03:19

Часовой пояс: UTC + 3


Вы не можете начинать темы
Вы не можете отвечать на сообщения
Вы не можете редактировать свои сообщения
Вы не можете удалять свои сообщения
Вы не можете голосовать в опросах
Вы не можете прикреплять файлы к сообщениям
Вы не можете скачивать файлы