(Классицизм / опера) Gluck - Orfeo ed Euridice [Italian version] / Глюк - Орфей и Эвридика (Bernarda Fink, Veronica Cangemi, Maria Cristina Kiehr / Freiburger Barockorchester, Rene Jacobs) - 2011, FLAC (image+.cue), lossless


 

[Цитировать]

Gluck: Orfeo ed Euridice - Bernarda Fink, Veronica Cangemi, Maria Cristina Kiehr / René Jacobs

Жанр: Классицизм / опера
Страна-производитель диска: Made in Italy
Год выпуска диска: 2011
Производитель диска: harmonia mundi s.a.
Номер по каталогу: HMX 2908616, HMX 2908617
Дата записи: 2001
Аудио кодек: FLAC
Тип рипа: image+.cue
Битрейт аудио: lossless
Продолжительность: 40:10 + 50:34
Источник: релизер
сайт-источник/ник/другое: Odeon
Наличие сканов в содержимом раздачи: да
Трэклист:

скрытый текст

CD 1
1 Overtura 2'47
2 ATTO PRIMO Scena 1 (Orfeo ed il Coro) Coro : Ah! Se intorno a quest'urna funesta 3'18
3 Orfeo (Recitativo) Basta, basta, o compagni! 0'53
4 Ballo Larghetto 2'49
5 Coro Ah, se intorno a quest'urna funesta 2'24
6 Orfeo (Aria) Chiamo il mio ben così 6'42
7 Orfeo (Recitativo) O Numi ! Barbari numi 2'44
8 Scena 2 (Amor ed Orfeo)Amore (Aria) Gli sguardi trattieni 2'55
9 Orfeo (Recitativo) Che disse! Che ascoltai! 2'23
10 ATTO SECONDO Scena 1 (Orfeo ed il Coro) Ballo e Coro. MaestosoChi mai dell'Erebo 1'54
11 Ballo e Coro Presto : Chi mai dell'Erebo 1'57
12 Ballo e Aria con Coro Maestoso : Deh! Placatevi con me 4'18
13 Coro Misero giovane! 0'53
14 Orfeo (Aria) Mille pene, ombre moleste 0'59
15 Coro Ah! Quale incognito 3'11
CD 2
1 Scena 2 (Orfeo ed Coro) Ballo Andante 2'06
2 Orfeo Che puro ciel! 5'38
3 Coro Vieni ai regni del riposo 1'39
4 Ballo Andante 2'30
5 Orfeo (Recitativo) Anime avventurose 0'46
6 Coro Torna, o bella, al tuo consorte 1'29
7 ATTO TERZO Scena 1 (Orfeo ed Euridice) (Recitativo) Vieni! Segui i miei passi 5'45
8 Orfeo ed Euridice (Aria) Vieni, appaga il tuo consorte! 3'13
9 Orfeo (Recitativo ed Aria) Qual' vita è questa mai 5'13
10 Orfeo ed Euridice (Recitativo) Ecco un nuovo tormento! 3'29
11 Orfeo (Aria) Che farò senza Euridice? 4'28
12 Orfeo, Amore de Euridice (Recitativo) Ah! finisca e per sempre 3'17
13 Scena 3 e ultima (tutti) Maestoso 0'22
14 Ballo Grazioso 2'18
15 Ballo Allegro 2'17
16 Ballo Andante 1'08
17 Ballo Allegro 2'16
18 Coro, Orfeo, Amore ed Euridice Trionfi Amore, e il mondo intiero 2'39
Доп. информация:

скрытый текст

Christoph Willibald GLUCK (1714-1787)
Orfeo ed Euridice (Italian version)
Оpera in 3 acts, Wq. 30
Bernarda Fink (Orfeo), mezzo-soprano
Veronica Cangemi (Euridice), soprano
Maria Cristina Kiehr (Amore), soprano
RIAS Kammerchor
Freiburger Barockorchester
René Jacobs, conductor
Recorded at Teldec-Studio, Berlin, January 2001
Audio CD (October 4, 2011)
Лог создания рипа
EAC CD1

скрытый текст

Exact Audio Copy V1.0 beta 3 from 29. August 2011
EAC extraction logfile from 1. January 2015, 19:47
René Jacobs / Music of the Enlightment (Vol.16/29) - Gluck - Orfeo ed Euridice (part 1)
Used drive : TSSTcorpCDDVDW SH-222BB Adapter: 2 ID: 1
Read mode : Secure
Utilize accurate stream : Yes
Defeat audio cache : Yes
Make use of C2 pointers : No
Read offset correction : 6
Overread into Lead-In and Lead-Out : No
Fill up missing offset samples with silence : Yes
Delete leading and trailing silent blocks : No
Null samples used in CRC calculations : Yes
Used interface : Native Win32 interface for Win NT & 2000
Used output format : User Defined Encoder
Selected bitrate : 896 kBit/s
Quality : High
Add ID3 tag : No
Command line compressor : C:\Program Files\Exact Audio Copy\FLAC\FLAC.EXE
Additional command line options : -8 -V -T "TITLE=%title%" -T "ARTIST=%artist%" -T "ALBUMARTIST=%albumartist%" -T "ALBUM=%albumtitle%" -T "DATE=%year%" -T "TRACKNUMBER=%tracknr%" -T "TRACKTOTAL=%numtracks%" -T "GENRE=%genre%" -T "COMMENT=%comment%" -T "PERFORMER=%albuminterpret%" -T "COMPOSER=%composer%" %source% -o %dest%
TOC of the extracted CD
Track | Start | Length | Start sector | End sector
---------------------------------------------------------
1 | 0:00.00 | 2:47.02 | 0 | 12526
2 | 2:47.02 | 3:18.30 | 12527 | 27406
3 | 6:05.32 | 0:53.25 | 27407 | 31406
4 | 6:58.57 | 2:49.15 | 31407 | 44096
5 | 9:47.72 | 2:23.70 | 44097 | 54891
6 | 12:11.67 | 6:41.68 | 54892 | 85034
7 | 18:53.60 | 2:44.12 | 85035 | 97346
8 | 21:37.72 | 2:54.48 | 97347 | 110444
9 | 24:32.45 | 2:22.42 | 110445 | 121136
10 | 26:55.12 | 1:54.03 | 121137 | 129689
11 | 28:49.15 | 1:57.02 | 129690 | 138466
12 | 30:46.17 | 4:17.53 | 138467 | 157794
13 | 35:03.70 | 0:52.67 | 157795 | 161761
14 | 35:56.62 | 0:59.23 | 161762 | 166209
15 | 36:56.10 | 3:11.22 | 166210 | 180556
Range status and errors
Selected range
Filename G:\Ripped general\[7581-16] Music of the Enlightment (Vol.16-29) – Gluck – Orfeo ed Euridice (part 1)\Music of the Enlightment (Vol.16,29) - Gluck - Orfeo ed Euridice (part 1).wav
Peak level 93.7 %
Extraction speed 6.0 X
Range quality 100.0 %
Test CRC 7BF93F77
Copy CRC 7BF93F77
Copy OK
No errors occurred
AccurateRip summary
Track 1 accurately ripped (confidence 29) [935E74E1] (AR v2)
Track 2 accurately ripped (confidence 29) [21233CE6] (AR v2)
Track 3 accurately ripped (confidence 29) [F19F0212] (AR v2)
Track 4 accurately ripped (confidence 29) [95711E45] (AR v2)
Track 5 accurately ripped (confidence 29) [D736F225] (AR v2)
Track 6 accurately ripped (confidence 28) [F21AB556] (AR v2)
Track 7 accurately ripped (confidence 29) [918B4EDD] (AR v2)
Track 8 accurately ripped (confidence 29) [B501BB07] (AR v2)
Track 9 accurately ripped (confidence 29) [25437F7C] (AR v2)
Track 10 accurately ripped (confidence 29) [4E5A1586] (AR v2)
Track 11 accurately ripped (confidence 29) [9D6F6438] (AR v2)
Track 12 accurately ripped (confidence 29) [9D76CAF4] (AR v2)
Track 13 accurately ripped (confidence 29) [E94A6B28] (AR v2)
Track 14 accurately ripped (confidence 29) [BE834E58] (AR v2)
Track 15 accurately ripped (confidence 29) [BEC64F92] (AR v2)
All tracks accurately ripped
End of status report
==== Log checksum B496D3AADF98E5C3675EFD24ED3C92DD4D0363CF4E5B3067BB506E506643B590 ====
EAC CD2

скрытый текст

Exact Audio Copy V1.0 beta 3 from 29. August 2011
EAC extraction logfile from 1. January 2015, 20:22
René Jacobs / Music of the Enlightment (Vol.17/29) - Gluck - Orfeo ed Euridice (part 2)
Used drive : TSSTcorpCDDVDW SH-222BB Adapter: 2 ID: 1
Read mode : Secure
Utilize accurate stream : Yes
Defeat audio cache : Yes
Make use of C2 pointers : No
Read offset correction : 6
Overread into Lead-In and Lead-Out : No
Fill up missing offset samples with silence : Yes
Delete leading and trailing silent blocks : No
Null samples used in CRC calculations : Yes
Used interface : Native Win32 interface for Win NT & 2000
Used output format : User Defined Encoder
Selected bitrate : 896 kBit/s
Quality : High
Add ID3 tag : No
Command line compressor : C:\Program Files\Exact Audio Copy\FLAC\FLAC.EXE
Additional command line options : -8 -V -T "TITLE=%title%" -T "ARTIST=%artist%" -T "ALBUMARTIST=%albumartist%" -T "ALBUM=%albumtitle%" -T "DATE=%year%" -T "TRACKNUMBER=%tracknr%" -T "TRACKTOTAL=%numtracks%" -T "GENRE=%genre%" -T "COMMENT=%comment%" -T "PERFORMER=%albuminterpret%" -T "COMPOSER=%composer%" %source% -o %dest%
TOC of the extracted CD
Track | Start | Length | Start sector | End sector
---------------------------------------------------------
1 | 0:00.00 | 2:05.60 | 0 | 9434
2 | 2:05.60 | 5:37.70 | 9435 | 34779
3 | 7:43.55 | 1:39.30 | 34780 | 42234
4 | 9:23.10 | 2:29.50 | 42235 | 53459
5 | 11:52.60 | 0:46.04 | 53460 | 56913
6 | 12:38.64 | 1:28.48 | 56914 | 63561
7 | 14:07.37 | 5:44.50 | 63562 | 89411
8 | 19:52.12 | 3:12.42 | 89412 | 103853
9 | 23:04.54 | 5:13.06 | 103854 | 127334
10 | 28:17.60 | 3:28.62 | 127335 | 142996
11 | 31:46.47 | 4:28.20 | 142997 | 163116
12 | 36:14.67 | 3:17.23 | 163117 | 177914
13 | 39:32.15 | 0:21.55 | 177915 | 179544
14 | 39:53.70 | 2:18.02 | 179545 | 189896
15 | 42:11.72 | 2:16.68 | 189897 | 200164
16 | 44:28.65 | 1:08.32 | 200165 | 205296
17 | 45:37.22 | 2:16.05 | 205297 | 215501
18 | 47:53.27 | 2:39.03 | 215502 | 227429
Range status and errors
Selected range
Filename G:\Ripped general\[7581-17] Music of the Enlightment (Vol.17-29) – Gluck – Orfeo ed Euridice (part 2)\Music of the Enlightment (Vol.17,29) - Gluck - Orfeo ed Euridice (part 2).wav
Peak level 98.0 %
Extraction speed 5.3 X
Range quality 100.0 %
Test CRC DB64272D
Copy CRC DB64272D
Copy OK
No errors occurred
AccurateRip summary
Track 1 accurately ripped (confidence 29) [3DFFB2F4] (AR v2)
Track 2 accurately ripped (confidence 29) [36BD9913] (AR v2)
Track 3 accurately ripped (confidence 29) [81587900] (AR v2)
Track 4 accurately ripped (confidence 29) [BC23E38E] (AR v2)
Track 5 accurately ripped (confidence 29) [5BA8436E] (AR v2)
Track 6 accurately ripped (confidence 29) [33F9EBD1] (AR v2)
Track 7 accurately ripped (confidence 29) [4E916D60] (AR v2)
Track 8 accurately ripped (confidence 28) [2F290EBB] (AR v2)
Track 9 accurately ripped (confidence 29) [1A089E10] (AR v2)
Track 10 accurately ripped (confidence 29) [6877E5BE] (AR v2)
Track 11 accurately ripped (confidence 29) [C7B5A4F3] (AR v2)
Track 12 accurately ripped (confidence 29) [03BCABF8] (AR v2)
Track 13 accurately ripped (confidence 29) [86C869C4] (AR v2)
Track 14 accurately ripped (confidence 29) [DB9F652D] (AR v2)
Track 15 accurately ripped (confidence 29) [95ABC1C6] (AR v2)
Track 16 accurately ripped (confidence 29) [B16129F9] (AR v2)
Track 17 accurately ripped (confidence 29) [49E734B0] (AR v2)
Track 18 accurately ripped (confidence 28) [9CE9813F] (AR v2)
All tracks accurately ripped
End of status report
==== Log checksum CA92F5A1BAD15608E8E17B9E1B65C746425411FD6946BD3056018A845135C6B3 ====



Показать сообщения:    

Текущее время: 09-Дек 16:37

Часовой пояс: UTC + 3


Вы не можете начинать темы
Вы не можете отвечать на сообщения
Вы не можете редактировать свои сообщения
Вы не можете удалять свои сообщения
Вы не можете голосовать в опросах
Вы не можете прикреплять файлы к сообщениям
Вы не можете скачивать файлы