(Electronic - Progressive, Experimental) Isao Tomita (1975) - Mussorgsky - Pictures at an Exhibition (in DOLBY SURROUND) - 1991, FLAC (image+.cue), lossless


 

[Цитировать]

Isao Tomita (1975) - Mussorgsky - Pictures at an Exhibition (in DOLBY SURROUND)

Жанр: Electronic - Progressive, Experimental
Год выпуска диска: 1991
Производитель диска: BMG Music Germany (BMG CLASSICS GD60576)
Аудио кодек: FLAC (flac 1.2.1 Q8)
Тип рипа: image+.cue (EAC V0.99 pß 5)
Битрейт аудио: lossless
Продолжительность: 0:37:11.35
Трэклист:
01. Promenade [0:01:32.50]
02. The Gnome [0:03:13.27]
03. Promenade [0:01:02.05]
04. The Old Castle [0:05:18.58]
05. Promenade [0:00:32.15]
06. Tuileries [0:00:54.30]
07. Bydlo [0:03:19.22]
08. Promenade [0:00:56.35]
09. Ballet of the Chicks in their Shells [0:01:08.03]
10. The Two Jews [0:03:06.32]
11. Limoges/Catacombs [0:03:51.48]
12. Cum Mortuis in Lingua Mortua [0:02:10.22]
13. Baba Yaga (Hut on Fowls' Legs) [0:03:43.50]
14. Great Gate of Kiev [0:06:22.13]
Источник рипа: Native rip from original CD
Доп. информация:
This record has been produced with encoding system and is fully compatible with stereo or monaural reproduction.

EAC log

Exact Audio Copy V0.99 prebeta 5 from 4. May 2009
EAC extraction logfile from 8. February 2010, 23:03
Isao Tomita / Mussorgsky - Pictures at an Exhibition (in DOLBY SURROUND)
Used drive : HL-DT-STDVD-RAM GH22LS30 Adapter: 1 ID: 2
Read mode : Secure
Utilize accurate stream : Yes
Defeat audio cache : Yes
Make use of C2 pointers : No
Read offset correction : 102
Overread into Lead-In and Lead-Out : No
Fill up missing offset samples with silence : Yes
Delete leading and trailing silent blocks : No
Null samples used in CRC calculations : Yes
Used interface : Native Win32 interface for Win NT & 2000
Used output format : User Defined Encoder
Selected bitrate : 320 kBit/s
Quality : High
Add ID3 tag : No
Command line compressor : C:\Program Files\Exact Audio Copy\flac.exe
Additional command line options : -8 -V -T "artist=%a" -T "title=%t" -T "album=%g" -T "date=%y" -T "tracknumber=%n" -T "genre=%m" -T "comment=EAC V0.99 pß 5 & flac 1.2.1 Q8" %s
TOC of the extracted CD
Track | Start | Length | Start sector | End sector
---------------------------------------------------------
1 | 0:00.50 | 1:32.50 | 50 | 6999
2 | 1:33.25 | 3:13.27 | 7000 | 21501
3 | 4:46.52 | 1:02.05 | 21502 | 26156
4 | 5:48.57 | 5:18.58 | 26157 | 50064
5 | 11:07.40 | 0:32.15 | 50065 | 52479
6 | 11:39.55 | 0:54.30 | 52480 | 56559
7 | 12:34.10 | 3:19.22 | 56560 | 71506
8 | 15:53.32 | 0:56.35 | 71507 | 75741
9 | 16:49.67 | 1:08.03 | 75742 | 80844
10 | 17:57.70 | 3:06.32 | 80845 | 94826
11 | 21:04.27 | 3:51.48 | 94827 | 112199
12 | 24:56.00 | 2:10.22 | 112200 | 121971
13 | 27:06.22 | 3:43.50 | 121972 | 138746
14 | 30:49.72 | 6:22.13 | 138747 | 167409
Range status and errors
Selected range
Filename F:\TMP\AUDIO_TMP\EAC_TMP\Isao Tomita - Mussorgsky - Pictures at an Exhibition (in DOLBY SURROUND).wav
Peak level 100.0 %
Range quality 99.9 %
Test CRC B434FCD1
Copy CRC B434FCD1
Copy OK
No errors occurred
AccurateRip summary
Track 1 accurately ripped (confidence 9) [299A49B8]
Track 2 accurately ripped (confidence 9) [AC92CAA0]
Track 3 accurately ripped (confidence 9) [00E668F1]
Track 4 accurately ripped (confidence 9) [F3B72B44]
Track 5 accurately ripped (confidence 9) [4C4DBB6C]
Track 6 accurately ripped (confidence 9) [68C86333]
Track 7 accurately ripped (confidence 9) [354243B7]
Track 8 accurately ripped (confidence 9) [A94CD653]
Track 9 accurately ripped (confidence 9) [78705320]
Track 10 accurately ripped (confidence 9) [0662EBA1]
Track 11 accurately ripped (confidence 9) [A38E6565]
Track 12 accurately ripped (confidence 9) [98A41EE3]
Track 13 accurately ripped (confidence 9) [D4A57C75]
Track 14 accurately ripped (confidence 9) [DD51CD9F]
All tracks accurately ripped
End of status report

Review

(by Jim Brenholts)
Isao Tomita has a real talent for transcribing classical music on the synthesizer. He adds much of his own personality to the new arrangements so they are not straight technical knockoffs. Mussorgsky: Pictures at an Exhibition takes on new meanings under Tomita's sensitive and sensible rendering. He is not re-inventing the wheel so all of the original drama and humor is there but the new hooks and riffs have moxy and their own senses of drama and humor. The ambient atmospheres and sci-fi textures give this version an outer space persona. It has become a stroll through an art gallery deep in the Milky Way. This is not quite Tomita's best work but it is close.
Source:



Показать сообщения:    

Текущее время: 09-Дек 12:42

Часовой пояс: UTC + 3


Вы не можете начинать темы
Вы не можете отвечать на сообщения
Вы не можете редактировать свои сообщения
Вы не можете удалять свои сообщения
Вы не можете голосовать в опросах
Вы не можете прикреплять файлы к сообщениям
Вы не можете скачивать файлы