(Classical Crossover) Emma Shapplin - Macadam Flower - 2009, FLAC (image+.cue), lossless


 

[Цитировать]

Emma Shapplin - Macadam Flower
Жанр: Classical Crossover
Год выпуска диска: 2009
Производитель диска: argentina nimue music 8869 763262-2
Аудио кодек: FLAC
Тип рипа: image+.cue
Битрейт аудио: lossless
Продолжительность: 39 min 25 sec
рип собственного диска.сканера нет поэтому без книжки
Трэклист:
1 NOTHING WRONG
2 THE HOURS ON THE FIELDS
3 L´ABSOLU
4 REPTILE
5 NUMBER 5
6 WHITE SAIL
7 MY SOUL
8 SUR L´EAU
9 NUMBER 9
10 LA PROMENADE DE SAN
11 JEALOUSLY YOURS
12 AEDEUS VARIATIONS

скрытый текст

Доп. информация: Exact Audio Copy V0.99 prebeta 5 from 4. May 2009
Отчёт EAC об извлечении, выполненном 28. февраля 2010, 15:25
Emma Shapplin / Macadam Flower
Дисковод: HL-DT-STDVDRAM GSA-T20N Adapter: 0 ID: 0
Режим чтения : Достоверность
Использование точного потока : Да
Отключение кэша аудио : Да
Использование указателей C2 : Нет
Коррекция смещения при чтении : 667
Способность читать области Lead-in и Lead-out : Нет
Заполнение пропущенных сэмплов тишиной : Да
Удаление блоков с тишиной в начале и конце : Нет
При вычислениях CRC использовались нулевые сэмплы : Да
Интерфейс : Встроенный Win32-интерфейс для Win NT/2000
Выходной формат : Пользовательский кодировщик
Выбранный битрейт : 192 kBit/s
Качество : Высокий
Добавление ID3-тэга : Нет
Утилита сжатия : C:\Program Files\Exact Audio Copy\Flac\flac.exe
Дополнительные параметры : -8 -V %s
TOC извлечённого CD
Трек | Старт | Длительность | Начальный сектор | Конечный сектор
---------------------------------------------------------------------
1 | 0:00.00 | 3:07.59 | 0 | 14083
2 | 3:07.59 | 4:49.42 | 14084 | 35800
3 | 7:57.26 | 5:15.04 | 35801 | 59429
4 | 13:12.30 | 3:24.06 | 59430 | 74735
5 | 16:36.36 | 0:33.27 | 74736 | 77237
6 | 17:09.63 | 3:39.47 | 77238 | 93709
7 | 20:49.35 | 3:57.73 | 93710 | 111557
8 | 24:47.33 | 3:33.34 | 111558 | 127566
9 | 28:20.67 | 0:32.04 | 127567 | 129970
10 | 28:52.71 | 3:34.40 | 129971 | 146060
11 | 32:27.36 | 3:25.51 | 146061 | 161486
12 | 35:53.12 | 3:32.53 | 161487 | 177439
Характеристики диапазона извлечения и сообщения об ошибках
Выбранный диапазон
Имя файла D:\Новая папка (2)\Emma Shapplin - Macadam Flower.wav
Пиковый уровень 100.0 %
Качество диапазона 100.0 %
CRC теста CCD812A3
CRC копии CCD812A3
Копирование... OK
Ошибок не произошло
AccurateRip: сводка
Трек 1 точное извлечение (доверие 1) [4F33E8DE]
Трек 2 точное извлечение (доверие 1) [44B57F1F]
Трек 3 точное извлечение (доверие 1) [C0D5638D]
Трек 4 точное извлечение (доверие 1) [CF68AD10]
Трек 5 точное извлечение (доверие 1) [8900F40C]
Трек 6 точное извлечение (доверие 1) [824E35DE]
Трек 7 точное извлечение (доверие 1) [DD0C1B8E]
Трек 8 точное извлечение (доверие 1) [69A3F9A9]
Трек 9 точное извлечение (доверие 1) [E9CD731A]
Трек 10 точное извлечение (доверие 1) [3CF5AC99]
Трек 11 точное извлечение (доверие 1) [A993FC35]
Трек 12 точное извлечение (доверие 1) [54EF0199]
Все треки извлечены точно
Конец отчёта



Показать сообщения:    

Текущее время: 10-Дек 04:09

Часовой пояс: UTC + 3


Вы не можете начинать темы
Вы не можете отвечать на сообщения
Вы не можете редактировать свои сообщения
Вы не можете удалять свои сообщения
Вы не можете голосовать в опросах
Вы не можете прикреплять файлы к сообщениям
Вы не можете скачивать файлы