(Baroque сomedie-ballet) Charpentier / Moliere - Le Malade Imaginaire (Мнимый больной) - (Isabelle Poulenard, Jill Feldman, Guillemette Laurens, Bernard Deletre, Jean-Paul Fouchecourt / Marc Minkowski - 1992, FLAC (image+.cue), lossless


 

[Цитировать]

Charpentier / Moliere: Le Malade Imaginaire (Мнимый больной) - Isabelle Poulenard, Jill Feldman, Guillemette Laurens, Gilles Ragon, Bernard Deletre, Jean-Paul Fouchecourt / Les Musiciens du Louvre, Marc Minkowski

Жанр: Baroque сomedie-ballet
Год выпуска диска: 1992
Производитель диска: Label: Erato Disques , Radio France ; Made in Germany
Аудио кодек: FLAC
Тип рипа: image+.cue
Битрейт аудио: lossless
Продолжительность: Total timing: 73'12
Трэклист:

скрытый текст

PROLOGUE
1 Ouverture (2'59)
2 Eglogue (11'23)
3 Combat (5'59)
4 Laissez, laissez bergers (8'40)
5 PREMIER INTERMEDE (13'08)
6-7 SECOND INTERMEDE (8'51)
8-9 TROISIEME INTERMEDE (22'27)
Доп. информация:

скрытый текст

Marc-Antoine Charpentier
Jean-Baptiste Poquelin (Molière)
Le Malade Imaginaire
Prologue & Intermedes
Premiere version 1673 (H. 495)
Isabelle Poulenard, dessus
Jill Feldman, dessus
Guillemette Laurens, dessus
Gilles Ragon, haute-contre
Michel Verschaeve, taille
Bernard Deletre, basse
Jean-Louis Bindi, basse
Jean-Paul Fouchecourt, haute-contre
LES MUSICIENS DU LOUVRE
Director: Marc Minkowski
Запись 1990 года
Audio CD (January 27, 1992)
This Charpentier's work is the musical set of Intermedes for Moliere's plays. In this recording time it was the first recording of Charpentier's work.
EAC

скрытый текст

Exact Audio Copy V1.0 beta 1 from 15. November 2010
EAC extraction logfile from 5. May 2011, 18:18
Minkowski - Les Musiciens du Louvre / Charpentier - Le Malade Imaginaire
Used drive : PIONEER DVD-RW DVR-215 Adapter: 2 ID: 1
Read mode : Secure
Utilize accurate stream : Yes
Defeat audio cache : Yes
Make use of C2 pointers : No
Read offset correction : 48
Overread into Lead-In and Lead-Out : No
Fill up missing offset samples with silence : Yes
Delete leading and trailing silent blocks : No
Null samples used in CRC calculations : Yes
Used interface : Native Win32 interface for Win NT & 2000
Used output format : User Defined Encoder
Selected bitrate : 768 kBit/s
Quality : High
Add ID3 tag : No
Command line compressor : C:\Program Files\Exact Audio Copy\FLAC\FLAC.EXE
Additional command line options : -6 -V -T "ARTIST=%a" -T "TITLE=%t" -T "ALBUM=%g" -T "DATE=%y" -T "TRACKNUMBER=%n" -T "GENRE=%m" -T "COMMENT=%e" %j--picture="%i"%j %s -o %d
TOC of the extracted CD
Track | Start | Length | Start sector | End sector
---------------------------------------------------------
1 | 0:00.00 | 2:59.18 | 0 | 13442
2 | 2:59.18 | 11:23.22 | 13443 | 64689
3 | 14:22.40 | 5:58.58 | 64690 | 91597
4 | 20:21.23 | 8:44.12 | 91598 | 130909
5 | 29:05.35 | 13:12.60 | 130910 | 190369
6 | 42:18.20 | 2:03.65 | 190370 | 199659
7 | 44:22.10 | 6:41.58 | 199660 | 229792
8 | 51:03.68 | 2:47.05 | 229793 | 242322
9 | 53:50.73 | 19:22.07 | 242323 | 329479
Range status and errors
Selected range
Filename C:\Users\Otto\Desktop\new uploads\Charpentier - Le Malade Imaginaire - Minkowski, Les Musiciens du Louvre (flac,scans) MACMIM\cd\Charpentier - Le Malade Imaginaire - Minkowski, Les Musiciens du Louvre.wav
Peak level 100.0 %
Extraction speed 1.7 X
Range quality 100.0 %
Copy CRC 1AD41D4B
Copy OK
No errors occurred
End of status report
==== Log checksum 5D56036FC90C7C4EF00E841AF60D7AE6B2DC3C6A32E607902E3AAE70B6C68393 ====



Показать сообщения:    

Текущее время: 05-Дек 05:31

Часовой пояс: UTC + 3


Вы не можете начинать темы
Вы не можете отвечать на сообщения
Вы не можете редактировать свои сообщения
Вы не можете удалять свои сообщения
Вы не можете голосовать в опросах
Вы не можете прикреплять файлы к сообщениям
Вы не можете скачивать файлы