(Classical) Paul Hindemith: The Complete Viola Music, Vol. 1 — Sonatas for viola and piano (Lawrence Power, Simon Crawford-Phillips), 2009, FLAC (tracks+.cue) lossless


 

[Цитировать]

Paul Hindemith
The Complete Viola Music, Vol. 1

Viola Sonatas
Жанр: classical
Страна-производитель диска: UK
Год издания диска: 2009
Издатель (лейбл):

Дата записи: 25–27 апреля 2008 года
Аудиокодек: FLAC
Тип рипа: tracks+.cue
Битрейт аудио: lossless
Продолжительность: 00:57:54
Источник: скачано с what.cd
Наличие сканов в содержимом раздачи: буклет
Исполнители: Lawrence Power (viola), Simon Crawford-Phillips (piano)
См. также:
Vol. 2: Sonatas for solo viola
Vol. 3: Music for viola and orchestra

Трэклист:

Sonata (1939)
01. Breit — Mit Kraft (6:55)
02. Sehr lebhaft (4:26)
03. Phantasie: Sehr langsam, frei (4:13)
04. Finale (mit zwei Variationen): Leicht bewegt — Ein wenig langsamer — Sehr lebhaft (7:18)
Sonata in F major Op. 11 No 4 (1919)
05. Fantasie: Ruhig — (2:55)
06. Thema mit Variationen I–IV — (3:56)
07. Finale (mit Variationen): Sehr lebhaft (Alla breve) in wechselnder Taktart — Variationen V–VII — Coda: Sehr lebhaft und erregt (9:37)
Sonata Op. 25 No 4 (1922)
08. Sehr lebhaft — Markiert und kraftvoll (4:50)
09. Sehr langsam Viertel (4:07)
10. Finale: Lebhafte Viertel (5:26)
from Nobilissima visione (1938)
11. Meditation: Sehr langsam (4:11)

Лог создания рипа:

Exact Audio Copy V0.99 prebeta 5 from 4. May 2009
EAC extraction logfile from 2. February 2010, 21:23
Paul Hindemith / The Complete Viola Music, Vol. 1 - Sonatas
Used drive : PIONEER DVD-RW DVR-212D Adapter: 3 ID: 0
Read mode : Secure
Utilize accurate stream : Yes
Defeat audio cache : Yes
Make use of C2 pointers : No
Read offset correction : 48
Overread into Lead-In and Lead-Out : No
Fill up missing offset samples with silence : Yes
Delete leading and trailing silent blocks : No
Null samples used in CRC calculations : Yes
Used interface : Native Win32 interface for Win NT & 2000
Gap handling : Appended to previous track
Used output format : User Defined Encoder
Selected bitrate : 320 kBit/s
Quality : High
Add ID3 tag : No
Command line compressor : C:\Program Files\Exact Audio Copy\Flac\flac.exe
Additional command line options : -V -8 -T "artist=%a" -T "title=%t" -T "album=%g" -T "date=%y" -T "tracknumber=%n" -T "genre=%m" %s
TOC of the extracted CD
Track | Start | Length | Start sector | End sector
---------------------------------------------------------
1 | 0:00.00 | 6:55.34 | 0 | 31158
2 | 6:55.34 | 4:26.00 | 31159 | 51108
3 | 11:21.34 | 4:12.68 | 51109 | 70076
4 | 15:34.27 | 7:18.18 | 70077 | 102944
5 | 22:52.45 | 2:55.19 | 102945 | 116088
6 | 25:47.64 | 3:55.53 | 116089 | 133766
7 | 29:43.42 | 9:37.01 | 133767 | 177042
8 | 39:20.43 | 4:50.21 | 177043 | 198813
9 | 44:10.64 | 4:07.22 | 198814 | 217360
10 | 48:18.11 | 5:25.57 | 217361 | 241792
11 | 53:43.68 | 4:10.43 | 241793 | 260585
Track 1
Filename D:\Paul Hindemith - The Complete Viola Music - Vol. 1, The Sonatas [FLAC]\01. Viola Sonata - 1. Breit; Mit Kraft.wav
Pre-gap length 0:00:02.00
Peak level 79.4 %
Track quality 100.0 %
Test CRC B58244B4
Copy CRC B58244B4
Track not present in AccurateRip database
Copy OK
Track 2
Filename D:\Paul Hindemith - The Complete Viola Music - Vol. 1, The Sonatas [FLAC]\02. Viola Sonata - 2. Sehr Lebhaft.wav
Peak level 78.2 %
Track quality 100.0 %
Test CRC C89389EB
Copy CRC C89389EB
Track not present in AccurateRip database
Copy OK
Track 3
Filename D:\Paul Hindemith - The Complete Viola Music - Vol. 1, The Sonatas [FLAC]\03. Viola Sonata - 3. Phantasie- Sehr Langsam, Frei.wav
Peak level 67.7 %
Track quality 100.0 %
Test CRC 2E911D33
Copy CRC 2E911D33
Track not present in AccurateRip database
Copy OK
Track 4
Filename D:\Paul Hindemith - The Complete Viola Music - Vol. 1, The Sonatas [FLAC]\04. Viola Sonata - 4. Finale Mit 2 Variationen.wav
Peak level 63.7 %
Track quality 100.0 %
Test CRC A97CB25B
Copy CRC A97CB25B
Track not present in AccurateRip database
Copy OK
Track 5
Filename D:\Paul Hindemith - The Complete Viola Music - Vol. 1, The Sonatas [FLAC]\05. Viola Sonata In F, Op. 11-4 - 1. Fantasie- Ruhig.wav
Peak level 76.4 %
Track quality 100.0 %
Test CRC 75633CBF
Copy CRC 75633CBF
Track not present in AccurateRip database
Copy OK
Track 6
Filename D:\Paul Hindemith - The Complete Viola Music - Vol. 1, The Sonatas [FLAC]\06. Viola Sonata In F, Op. 11-4 - 2. Thema Mit Variationen.wav
Peak level 73.6 %
Track quality 100.0 %
Test CRC 3CBC75E1
Copy CRC 3CBC75E1
Track not present in AccurateRip database
Copy OK
Track 7
Filename D:\Paul Hindemith - The Complete Viola Music - Vol. 1, The Sonatas [FLAC]\07. Viola Sonata In F, Op. 11-4 - 3. Finale Mit Variationen.wav
Peak level 98.2 %
Track quality 100.0 %
Test CRC EEB27215
Copy CRC EEB27215
Track not present in AccurateRip database
Copy OK
Track 8
Filename D:\Paul Hindemith - The Complete Viola Music - Vol. 1, The Sonatas [FLAC]\08. Viola Sonata, Op. 25-4 - 1. Sehr Lebhaft; Markiert & Kraftvoll.wav
Peak level 63.2 %
Track quality 100.0 %
Test CRC 89D54E5F
Copy CRC 89D54E5F
Track not present in AccurateRip database
Copy OK
Track 9
Filename D:\Paul Hindemith - The Complete Viola Music - Vol. 1, The Sonatas [FLAC]\09. Viola Sonata, Op. 25-4 - 2. Sehr Langsam Viertel.wav
Peak level 41.0 %
Track quality 100.0 %
Test CRC FC911811
Copy CRC FC911811
Track not present in AccurateRip database
Copy OK
Track 10
Filename D:\Paul Hindemith - The Complete Viola Music - Vol. 1, The Sonatas [FLAC]\10. Viola Sonata, Op. 25-4 - 3. Finale- Lebhafte Viertel.wav
Peak level 81.6 %
Track quality 99.9 %
Test CRC 2FC8FFAB
Copy CRC 2FC8FFAB
Track not present in AccurateRip database
Copy OK
Track 11
Filename D:\Paul Hindemith - The Complete Viola Music - Vol. 1, The Sonatas [FLAC]\11. Nobilissima Visione - Meditation- Sehr Langsam.wav
Peak level 39.3 %
Track quality 100.0 %
Test CRC 29B746B3
Copy CRC 29B746B3
Track not present in AccurateRip database
Copy OK
None of the tracks are present in the AccurateRip database
No errors occurred
End of status report

Содержание индексной карты (.CUE):

REM DATE 2009
REM DISCID 9B0D920B
REM COMMENT "ExactAudioCopy v0.99pb5"
PERFORMER "Lawrence Power, Simon Crawford-Phillips"
TITLE "Sonatas for viola and piano"
FILE "01. Breit — Mit Kraft.wav" WAVE
TRACK 01 AUDIO
TITLE "Breit — Mit Kraft"
PERFORMER "Lawrence Power, Simon Crawford-Phillips"
INDEX 01 00:00:00
FILE "02. Sehr lebhaft.wav" WAVE
TRACK 02 AUDIO
TITLE "Sehr lebhaft"
PERFORMER "Lawrence Power, Simon Crawford-Phillips"
INDEX 01 00:00:00
FILE "03. Phantasie_ Sehr langsam, frei.wav" WAVE
TRACK 03 AUDIO
TITLE "Phantasie: Sehr langsam, frei"
PERFORMER "Lawrence Power, Simon Crawford-Phillips"
INDEX 01 00:00:00
FILE "04. Finale (mit zwei Variationen)_ Leicht bewegt....wav" WAVE
TRACK 04 AUDIO
TITLE "Finale (mit zwei Variationen): Leicht bewegt — Ein wenig langsamer — Sehr lebhaft"
PERFORMER "Lawrence Power, Simon Crawford-Phillips"
INDEX 01 00:00:00
FILE "05. Fantasie_ Ruhig —.wav" WAVE
TRACK 05 AUDIO
TITLE "Fantasie: Ruhig —"
PERFORMER "Lawrence Power, Simon Crawford-Phillips"
INDEX 01 00:00:00
FILE "06. Thema mit Variationen I–IV —.wav" WAVE
TRACK 06 AUDIO
TITLE "Thema mit Variationen I–IV —"
PERFORMER "Lawrence Power, Simon Crawford-Phillips"
INDEX 01 00:00:00
FILE "07. Finale (mit Variationen)_ Sehr lebhaft (Alla breve)....wav" WAVE
TRACK 07 AUDIO
TITLE "Finale (mit Variationen): Sehr lebhaft (Alla breve) in wechselnder Taktart — Variationen V–VII — Coda: Sehr lebhaft und erregt"
PERFORMER "Lawrence Power, Simon Crawford-Phillips"
INDEX 01 00:00:00
FILE "08. Sehr lebhaft — Markiert und kraftvoll.wav" WAVE
TRACK 08 AUDIO
TITLE "Sehr lebhaft — Markiert und kraftvoll"
PERFORMER "Lawrence Power, Simon Crawford-Phillips"
INDEX 01 00:00:00
FILE "09. Sehr langsam Viertel.wav" WAVE
TRACK 09 AUDIO
TITLE "Sehr langsam Viertel"
PERFORMER "Lawrence Power, Simon Crawford-Phillips"
INDEX 01 00:00:00
FILE "10. Finale_ Lebhafte Viertel.wav" WAVE
TRACK 10 AUDIO
TITLE "Finale: Lebhafte Viertel"
PERFORMER "Lawrence Power, Simon Crawford-Phillips"
INDEX 01 00:00:00
FILE "11. Meditation_ Sehr langsam.wav" WAVE
TRACK 11 AUDIO
TITLE "Meditation: Sehr langsam"
PERFORMER "Lawrence Power, Simon Crawford-Phillips"
INDEX 01 00:00:00



Показать сообщения:    

Текущее время: 08-Дек 23:12

Часовой пояс: UTC + 3


Вы не можете начинать темы
Вы не можете отвечать на сообщения
Вы не можете редактировать свои сообщения
Вы не можете удалять свои сообщения
Вы не можете голосовать в опросах
Вы не можете прикреплять файлы к сообщениям
Вы не можете скачивать файлы