Глобальный метал / Global Metal (Sam Dunn, Scot McFadyen) [2008 г., документальный, музыка, DVDRip-AVC, sub]


Статистика раздачи [Обновить пиров]
Размер:  1.56 GB   |    Зарегистрирован:  8 месяцев 25 дней   |    Скачан:  0 раз

Полного источника не было: Никогда

 
   
 
 
 

[Цитировать]

Глобальный метал / Global Metal
Год выпуска: 2008
Страна: Канада
Жанр: документальный, музыка
Продолжительность: 1:31:19
Перевод: Субтитры
Русские субтитры: есть
Навигация по главам: есть
Режиссер: Sam Dunn, Scot McFadyen
Описание: "Global Metal" - новый документальный фильм, который привлечет к себе внимание аудитории из самых неожиданных уголков мира: от Индонезии, Японии и Китая до Индии, Израиля, Дубая и Бразилии. Фильм демонстрирует международные оттенки, пожалуй, самого универсального музыкального жанра - heavy metal.
В своем произведении "Global Metal" режиссеры Scot McFadyen и Sam Dunn предприняли попытку рассмотреть степень влияния наиболее "пагубного" западного музыкального жанра - heavy metal - на мировые культуры за пределами Европы и Северной Америки. В роли комментатора-ведущего выступает металлист и антрополог Sam Dunn, который в ходе своего обширного путешествия по странам Азии, Южной Америки, Южной Азии и Ближнего Востока исследует уголки мира, уязвимые для образования экстремальных музыкальных направлений - от индонезийского death metal и китайского black metal до иранского thrash metal. "Global Metal" показывает мировое сообщество металлистов, которые не только потребляют металл с Запада, а еще и перерабатывают его, создавая новую форму культурной выразительности в тех обществах, где преобладают конфликты, коррупция и ориентация на массовое потребление.
В ходе своего путешествия Sam вновь встречается с большинством своих кумиров металлической музыки, являясь свидетелем выступления BLACK SABBATH перед 40000-ной аудиторией на футбольном стадионе в Рио-де-Жанейро, аншлагового концерта SLAYER в Джакарте, зажигательной игры ARCH ENEMY во время open-air фестиваля в Тель-Авиве. Наиболее важно то, что в каждом конкретном случае Sam исследует степень взаимодействия металла с традиционными музыкальными пристрастиями, его отношение к силовым, классовым и экономическим проблемам, религии, а также степень интеграции, или же, наоборот, противостояния металлической музыки местным традициям и истории.
"Global Metal" - плод совместных сочинительских, режиссерских и продюсерских усилий Scot'a McFadyen'a и Sam'a Dunn'a. По словам Scot'a, импульсом к созданию "Global Metal" послужила невероятная по своим масштабам реакция на его первый фильм - "Metal: A Headbanger's Journey". "Мы возлагали большие надежды на эту документальную ленту, но результаты после ее премьеры на международном кинофестивале в Торонто (TIFF) в 2005 году превзошли все наши ожидания.
Качество: DVDRip
Формат: MKV
Видео кодек: H.264
Аудио кодек: AC3
Видео: 720:576 (16:9), 25 fps, x264 ~2000 kbps
Аудио: English AC3 5.1, 48.0 KHz, 448 kbps

MediaInfo

General
Complete name : D:\Torrents\Global Metal (2008).mkv
Format : Matroska
File size : 1.56 GiB
Duration : 1h 31mn
Overall bit rate : 2 449 Kbps
Encoded date : UTC 2010-06-01 19:16:25
Writing application : mkvmerge v3.3.0 ('Language') built on Mar 24 2010 14:59:24
Writing library : libebml v0.8.0 + libmatroska v0.9.0
Video
ID : 1
Format : AVC
Format/Info : Advanced Video Codec
Format profile : High@L4.1
Format settings, CABAC : Yes
Format settings, ReFrames : 8 frames
Muxing mode : Container profile=Unknown@4.1
Codec ID : V_MPEG4/ISO/AVC
Duration : 1h 31mn
Bit rate : 2 000 Kbps
Width : 720 pixels
Height : 576 pixels
Display aspect ratio : 16:9
Original display aspect ratio : 5:4
Frame rate : 25.000 fps
Standard : PAL
Color space : YUV
Chroma subsampling : 4:2:0
Bit depth : 8 bits
Scan type : Progressive
Bits/(Pixel*Frame) : 0.193
Stream size : 1.25 GiB (80%)
Writing library : x264 core 80 r1376M 3feaec2
Encoding settings : cabac=1 / ref=8 / deblock=1:0:0 / analyse=0x3:0x133 / me=umh / subme=9 / psy=1 / psy_rd=1.0:0.0 / mixed_ref=1 / me_range=16 / chroma_me=1 / trellis=2 / 8x8dct=1 / cqm=0 / deadzone=21,11 / fast_pskip=1 / chroma_qp_offset=-2 / threads=3 / sliced_threads=0 / nr=0 / decimate=1 / mbaff=0 / constrained_intra=0 / bframes=3 / b_pyramid=0 / b_adapt=2 / b_bias=0 / direct=3 / wpredb=1 / wpredp=2 / keyint=250 / keyint_min=25 / scenecut=40 / rc_lookahead=40 / rc=2pass / mbtree=1 / bitrate=2000 / ratetol=1.0 / qcomp=0.60 / qpmin=10 / qpmax=51 / qpstep=4 / cplxblur=20.0 / qblur=0.5 / ip_ratio=1.40 / aq=1:1.00
Language : English
Audio
ID : 2
Format : AC-3
Format/Info : Audio Coding 3
Mode extension : CM (complete main)
Codec ID : A_AC3
Duration : 1h 31mn
Bit rate mode : Constant
Bit rate : 448 Kbps
Channel(s) : 6 channels
Channel positions : Front: L C R, Side: L R, LFE
Sampling rate : 48.0 KHz
Stream size : 293 MiB (18%)
Language : English
Text
ID : 3
Format : UTF-8
Codec ID : S_TEXT/UTF8
Codec ID/Info : UTF-8 Plain Text
Language : Russian
Menu
00:00:00.000 : en:More Than Music
00:04:26.240 : en:Brazil
00:14:17.440 : en:Japan
00:28:56.600 : en:India
00:37:08.280 : en:China
00:50:29.760 : en:Indonesia
01:02:35.520 : en:Israel
01:13:14.400 : en:Dubai
01:23:21.600 : en:Iron Maiden In India
01:28:25.720 : en:Credits

Скриншоты

[teatrix.ru].t15800.torrent 
Торрент: Зарегистрирован [ 2016-03-15 12:21 ] · 7A82CC2C604AAF495DCF297F2DBD114ACA4EAF46

Скачать .torrent

Скачать

16 KB

Статус: проверено
Скачан: 0 раз
Размер: 1.56 GB
terms.php



Быстрый ответ

Имя:

      
Для отправки сообщений необходимо включить JavaScript
Показать сообщения:    

Текущее время: 09-Дек 14:38

Часовой пояс: UTC + 3


Вы можете начинать темы
Вы можете отвечать на сообщения
Вы не можете редактировать свои сообщения
Вы не можете удалять свои сообщения
Вы не можете голосовать в опросах
Вы не можете прикреплять файлы к сообщениям
Вы можете скачивать файлы