(Classical) The Best of Classical Brits - 2009, FLAC (tracks+.cue) lossless


 

[Цитировать]

The Best of Classical Brits
Жанр: Classical
Стиль: Neo-Classical
Страна-производитель диска: Великобритания
Год издания диска: 2009
Издатель (лейбл): The Mail On Sunday
Номер по каталогу: MOS2009TMS1
Дата записи: 2005-2009
Аудиокодек: FLAC
Тип рипа: tracks+.cue
Битрейт аудио: lossless
Продолжительность: 56:11
Источник: discogs.com
сайт-источник/ник/другое: http://www.discogs.com/Various-The-Best-Of-Classical-Brits/release/1776528
Наличие сканов в содержимом раздачи: да
Треклист:
1. Faryl Smith - River Of Light 3:44
2. Lesley Garrett - I Will Wait For You (Live) 3:17
3. Angela Gheorghiu - Casta Diva (Live) 7:18
4. Opera Babes - One Fine Day (Live) 3:01
5. Bryn Terfel - Shenandoah (Live) 4:20
6. Hayley Westenra - Pokarekare Ana (Live) 3:39
7. Katherine Jenkins - Ave Maria 3:02
8. All Angels - Sancte Deus (Live) 3:37
9. Natasha Marsh & Alfie Boe - Libiamo (Live) 3:04
10. Hayley Westenra & Jonathan Ansell - Un Giorno Per Noi (Live) 4:26
11. David Garrett, Valeriy Sokolov & XuiFei Yang - Navarra (Live) 3:24
12. Charlotte Church - Guide Me, O Thou Great Redeemer (Live) 2:56
13. Plácido Domingo & Rolando Villazón - Non Ti Scordar Di Me (Live) 3:18
14. José Carreras - Granada 3:35
15. Russell Watson - Nessun Dorma (Live) 3:31
Исполнители:
Faryl Smith, Lesley Garrett, Angela Gheorghiu, Opera Babes, Bryn Terfel, Hayley Westenra, Katherine Jenkins, All Angels, Natasha Marsh & Alfie Boe, Hayley Westenra & Jonathan Ansell, David Garrett, Valeriy Sokolov & XuiFei Yang, Charlotte Church, Plácido Domingo & Rolando Villazón, José Carreras, Russell Watson

Лог создания рипа

Exact Audio Copy V0.99 prebeta 4 from 23. January 2008
EAC extraction logfile from 17. May 2009, 19:01
Various / Classical Brits (Promo-The Mail)
Used drive : HL-DT-STBD-RE GGW-H20L Adapter: 0 ID: 2
Read mode : Secure
Utilize accurate stream : Yes
Defeat audio cache : Yes
Make use of C2 pointers : No
Read offset correction : 667
Overread into Lead-In and Lead-Out : No
Fill up missing offset samples with silence : Yes
Delete leading and trailing silent blocks : No
Null samples used in CRC calculations : Yes
Used interface : Installed external ASPI interface
Gap handling : Appended to previous track
Used output format : User Defined Encoder
Selected bitrate : 1024 kBit/s
Quality : High
Add ID3 tag : No
Command line compressor : C:\Program Files\Exact Audio Copy\Flac\flac.exe
Additional command line options : -8 -V -T "ARTIST=%a" -T "TITLE=%t" -T "ALBUM=%g" -T "DATE=%y" -T "TRACKNUMBER=%n" -T "GENRE=%m" -T "COMMENT=EAC FLAC - 8 - oan" %s
TOC of the extracted CD
Track | Start | Length | Start sector | End sector
---------------------------------------------------------
1 | 0:00.00 | 3:43.45 | 0 | 16769
2 | 3:43.45 | 3:16.44 | 16770 | 31513
3 | 7:00.14 | 7:17.74 | 31514 | 64362
4 | 14:18.13 | 3:00.73 | 64363 | 77935
5 | 17:19.11 | 4:19.68 | 77936 | 97428
6 | 21:39.04 | 3:39.17 | 97429 | 113870
7 | 25:18.21 | 3:01.73 | 113871 | 127518
8 | 28:20.19 | 3:37.21 | 127519 | 143814
9 | 31:57.40 | 3:03.57 | 143815 | 157596
10 | 35:01.22 | 4:26.04 | 157597 | 177550
11 | 39:27.26 | 3:24.08 | 177551 | 192858
12 | 42:51.34 | 2:55.60 | 192859 | 206043
13 | 45:47.19 | 3:18.09 | 206044 | 220902
14 | 49:05.28 | 3:34.54 | 220903 | 237006
15 | 52:40.07 | 3:31.13 | 237007 | 252844
Track 1
Filename C:\oan\01 - Faryl Smith - River Of Light.wav
Pre-gap length 0:00:02.00
Peak level 99.7 %
Track quality 100.0 %
Test CRC 23EAB9D1
Copy CRC 23EAB9D1
Track not present in AccurateRip database
Copy OK
Track 2
Filename C:\oan\02 - Lesley Garrett - I WIll Wait For You.wav
Peak level 99.3 %
Track quality 99.9 %
Test CRC 04A8B8E6
Copy CRC 04A8B8E6
Track not present in AccurateRip database
Copy OK
Track 3
Filename C:\oan\03 - Angela Gheorghiu - Casta Diva.wav
Peak level 99.1 %
Track quality 99.9 %
Test CRC 84DDF9B8
Copy CRC 84DDF9B8
Track not present in AccurateRip database
Copy OK
Track 4
Filename C:\oan\04 - Opera Babes - One Fine Day.wav
Peak level 98.6 %
Track quality 99.9 %
Test CRC A37F7BCD
Copy CRC A37F7BCD
Track not present in AccurateRip database
Copy OK
Track 5
Filename C:\oan\05 - Bryn Terfel - Shenandoah.wav
Peak level 79.7 %
Track quality 100.0 %
Test CRC 8E2F6475
Copy CRC 8E2F6475
Track not present in AccurateRip database
Copy OK
Track 6
Filename C:\oan\06 - Hayley Westenra - Pokarekare Ana.wav
Peak level 98.3 %
Track quality 100.0 %
Test CRC 40EFC9BC
Copy CRC 40EFC9BC
Track not present in AccurateRip database
Copy OK
Track 7
Filename C:\oan\07 - Katherine Jenkins - Ave Maria.wav
Peak level 99.8 %
Track quality 99.9 %
Test CRC A5187FC2
Copy CRC A5187FC2
Track not present in AccurateRip database
Copy OK
Track 8
Filename C:\oan\08 - All Angels - Sancte Deus.wav
Peak level 98.9 %
Track quality 100.0 %
Test CRC AC75EBFB
Copy CRC AC75EBFB
Track not present in AccurateRip database
Copy OK
Track 9
Filename C:\oan\09 - Natasha Marsh, Alfie Boe - Libiamo.wav
Peak level 100.0 %
Track quality 100.0 %
Test CRC 616D7BFE
Copy CRC 616D7BFE
Track not present in AccurateRip database
Copy OK
Track 10
Filename C:\oan\10 - Hayley Westenra, Jonathan Ansell - Un Giorno Per Noi.wav
Peak level 99.6 %
Track quality 100.0 %
Test CRC 2B9246D3
Copy CRC 2B9246D3
Track not present in AccurateRip database
Copy OK
Track 11
Filename C:\oan\11 - David Garrett, Valeriy Sokolov, XuiFei Yang - Navarra.wav
Peak level 95.8 %
Track quality 100.0 %
Test CRC D29E30FE
Copy CRC D29E30FE
Track not present in AccurateRip database
Copy OK
Track 12
Filename C:\oan\12 - Charlotte Church - Guide Me, O Though Great Redeemer.wav
Peak level 100.0 %
Track quality 100.0 %
Test CRC 072DB4F7
Copy CRC 072DB4F7
Track not present in AccurateRip database
Copy OK
Track 13
Filename C:\oan\13 - Placido Domingo, Rolando Villazon - Non Ti Scordar Di Me.wav
Peak level 99.4 %
Track quality 100.0 %
Test CRC 58DC76C0
Copy CRC 58DC76C0
Track not present in AccurateRip database
Copy OK
Track 14
Filename C:\oan\14 - Jose Carreras - Granada.wav
Peak level 95.1 %
Track quality 100.0 %
Test CRC 6A017107
Copy CRC 6A017107
Track not present in AccurateRip database
Copy OK
Track 15
Filename C:\oan\15 - Russell Watson - Nessun Dorma.wav
Peak level 100.0 %
Track quality 100.0 %
Test CRC 520D7024
Copy CRC 520D7024
Track not present in AccurateRip database
Copy OK
None of the tracks are present in the AccurateRip database
No errors occurred
End of status report

Содержание индексной карты (.CUE)

flac

REM GENRE Classical
REM DATE 2009
REM DISCID B50D2B0F
REM COMMENT "ExactAudioCopy v0.99pb4"
PERFORMER "Various"
TITLE " Classical Brits (Promo-The Mail)"
FILE "01 - Faryl Smith - River Of Light.flac" WAVE
TRACK 01 AUDIO
TITLE "River Of Light"
PERFORMER "Faryl Smith"
INDEX 01 00:00:00
FILE "02 - Lesley Garrett - I WIll Wait For You.flac" WAVE
TRACK 02 AUDIO
TITLE "I WIll Wait For You"
PERFORMER "Lesley Garrett"
INDEX 01 00:00:00
FILE "03 - Angela Gheorghiu - Casta Diva.flac" WAVE
TRACK 03 AUDIO
TITLE "Casta Diva"
PERFORMER "Angela Gheorghiu"
INDEX 01 00:00:00
FILE "04 - Opera Babes - One Fine Day.flac" WAVE
TRACK 04 AUDIO
TITLE "One Fine Day"
PERFORMER "Opera Babes"
INDEX 01 00:00:00
FILE "05 - Bryn Terfel - Shenandoah.flac" WAVE
TRACK 05 AUDIO
TITLE "Shenandoah"
PERFORMER "Bryn Terfel"
INDEX 01 00:00:00
FILE "06 - Hayley Westenra - Pokarekare Ana.flac" WAVE
TRACK 06 AUDIO
TITLE "Pokarekare Ana"
PERFORMER "Hayley Westenra"
INDEX 01 00:00:00
FILE "07 - Katherine Jenkins - Ave Maria.flac" WAVE
TRACK 07 AUDIO
TITLE "Ave Maria"
PERFORMER "Katherine Jenkins"
INDEX 01 00:00:00
FILE "08 - All Angels - Sancte Deus.flac" WAVE
TRACK 08 AUDIO
TITLE "Sancte Deus"
PERFORMER "All Angels"
INDEX 01 00:00:00
FILE "09 - Natasha Marsh, Alfie Boe - Libiamo.flac" WAVE
TRACK 09 AUDIO
TITLE "Libiamo"
PERFORMER "Natasha Marsh, Alfie Boe"
INDEX 01 00:00:00
FILE "10 - Hayley Westenra, Jonathan Ansell - Un Giorno Per Noi.flac" WAVE
TRACK 10 AUDIO
TITLE "Un Giorno Per Noi"
PERFORMER "Hayley Westenra, Jonathan Ansell"
INDEX 01 00:00:00
FILE "11 - David Garrett, Valeriy Sokolov, XuiFei Yang - Navarra.flac" WAVE
TRACK 11 AUDIO
TITLE "Navarra"
PERFORMER "David Garrett, Valeriy Sokolov, XuiFei Yang"
INDEX 01 00:00:00
FILE "12 - Charlotte Church - Guide Me, O Though Great Redeemer.flac" WAVE
TRACK 12 AUDIO
TITLE "Guide Me, O Though Great Redeemer"
PERFORMER "Charlotte Church"
INDEX 01 00:00:00
FILE "13 - Placido Domingo, Rolando Villazon - Non Ti Scordar Di Me.flac" WAVE
TRACK 13 AUDIO
TITLE "Non Ti Scordar Di Me"
PERFORMER "Placido Domingo, Rolando Villazon"
INDEX 01 00:00:00
FILE "14 - Jose Carreras - Granada.flac" WAVE
TRACK 14 AUDIO
TITLE "Granada"
PERFORMER "Jose Carreras"
INDEX 01 00:00:00
FILE "15 - Russell Watson - Nessun Dorma.flac" WAVE
TRACK 15 AUDIO
TITLE "Nessun Dorma"
PERFORMER "Russell Watson"
INDEX 01 00:00:00

wav

REM GENRE Classical
REM DATE 2009
REM DISCID B50D2B0F
REM COMMENT "ExactAudioCopy v0.99pb4"
PERFORMER "Various"
TITLE " Classical Brits (Promo-The Mail)"
FILE "01 - Faryl Smith - River Of Light.wav" WAVE
TRACK 01 AUDIO
TITLE "River Of Light"
PERFORMER "Faryl Smith"
INDEX 01 00:00:00
FILE "02 - Lesley Garrett - I WIll Wait For You.wav" WAVE
TRACK 02 AUDIO
TITLE "I WIll Wait For You"
PERFORMER "Lesley Garrett"
INDEX 01 00:00:00
FILE "03 - Angela Gheorghiu - Casta Diva.wav" WAVE
TRACK 03 AUDIO
TITLE "Casta Diva"
PERFORMER "Angela Gheorghiu"
INDEX 01 00:00:00
FILE "04 - Opera Babes - One Fine Day.wav" WAVE
TRACK 04 AUDIO
TITLE "One Fine Day"
PERFORMER "Opera Babes"
INDEX 01 00:00:00
FILE "05 - Bryn Terfel - Shenandoah.wav" WAVE
TRACK 05 AUDIO
TITLE "Shenandoah"
PERFORMER "Bryn Terfel"
INDEX 01 00:00:00
FILE "06 - Hayley Westenra - Pokarekare Ana.wav" WAVE
TRACK 06 AUDIO
TITLE "Pokarekare Ana"
PERFORMER "Hayley Westenra"
INDEX 01 00:00:00
FILE "07 - Katherine Jenkins - Ave Maria.wav" WAVE
TRACK 07 AUDIO
TITLE "Ave Maria"
PERFORMER "Katherine Jenkins"
INDEX 01 00:00:00
FILE "08 - All Angels - Sancte Deus.wav" WAVE
TRACK 08 AUDIO
TITLE "Sancte Deus"
PERFORMER "All Angels"
INDEX 01 00:00:00
FILE "09 - Natasha Marsh, Alfie Boe - Libiamo.wav" WAVE
TRACK 09 AUDIO
TITLE "Libiamo"
PERFORMER "Natasha Marsh, Alfie Boe"
INDEX 01 00:00:00
FILE "10 - Hayley Westenra, Jonathan Ansell - Un Giorno Per Noi.wav" WAVE
TRACK 10 AUDIO
TITLE "Un Giorno Per Noi"
PERFORMER "Hayley Westenra, Jonathan Ansell"
INDEX 01 00:00:00
FILE "11 - David Garrett, Valeriy Sokolov, XuiFei Yang - Navarra.wav" WAVE
TRACK 11 AUDIO
TITLE "Navarra"
PERFORMER "David Garrett, Valeriy Sokolov, XuiFei Yang"
INDEX 01 00:00:00
FILE "12 - Charlotte Church - Guide Me, O Though Great Redeemer.wav" WAVE
TRACK 12 AUDIO
TITLE "Guide Me, O Though Great Redeemer"
PERFORMER "Charlotte Church"
INDEX 01 00:00:00
FILE "13 - Placido Domingo, Rolando Villazon - Non Ti Scordar Di Me.wav" WAVE
TRACK 13 AUDIO
TITLE "Non Ti Scordar Di Me"
PERFORMER "Placido Domingo, Rolando Villazon"
INDEX 01 00:00:00
FILE "14 - Jose Carreras - Granada.wav" WAVE
TRACK 14 AUDIO
TITLE "Granada"
PERFORMER "Jose Carreras"
INDEX 01 00:00:00
FILE "15 - Russell Watson - Nessun Dorma.wav" WAVE
TRACK 15 AUDIO
TITLE "Nessun Dorma"
PERFORMER "Russell Watson"
INDEX 01 00:00:00

Обложки




Показать сообщения:    

Текущее время: 02-Дек 21:13

Часовой пояс: UTC + 3


Вы не можете начинать темы
Вы не можете отвечать на сообщения
Вы не можете редактировать свои сообщения
Вы не можете удалять свои сообщения
Вы не можете голосовать в опросах
Вы не можете прикреплять файлы к сообщениям
Вы не можете скачивать файлы