(Classical / Pop) Charlotte Church - Discography (7 Albums) 1998-2010 [FLAC (tracks+.cue) lossless]


 

[Цитировать]

Charlotte Church - Discography- -Жанр: Classical / Pop || Страна: UK || Аудио кодек: FLAC || Тип рипа: tracks+.cue || Битрейт аудио: lossless || Продолжительность: 06:12:53 || Источник: what.cd-

1998 - Voice of an Angel

01 - Pie Jesu (03:30)
02 - Panis Angelicus (04:14)
03 - In Trutina (02:06)
04 - The Lord's Prayer (02:57)
05 - Jerusalem (02:18)
06 - Ave Maria (04:14)
07 - Psalm 23 (02:45)
08 - I Vow to Thee, My Country (03:58)
09 - Danny Boy (02:46)
10 - My Lagan Love (03:17)
11 - Suo Gân (03:16)
12 - A Lullaby (03:01)
13 - Amazing Grace (02:47)
14 - Three Welsh Bird Songs: Y Gylfinir (02:19)
15 - Three Welsh Bird Songs: Tylluanod (02:44)
16 - Three Welsh Bird Songs: Mae Hiraeth Yn Y Môr (02:43)
17 - When at Night I Go to Sleep (02:54)

LOG

Exact Audio Copy V0.99 prebeta 4 from 23. January 2008
EAC extraction logfile from 30. December 2008, 19:48
Charlotte Church / Voice of an Angel
Used drive : TSSTcorpCDDVDW SH-S203B Adapter: 5 ID: 1
Read mode : Secure
Utilize accurate stream : Yes
Defeat audio cache : Yes
Make use of C2 pointers : No
Read offset correction : 6
Overread into Lead-In and Lead-Out : No
Fill up missing offset samples with silence : Yes
Delete leading and trailing silent blocks : No
Null samples used in CRC calculations : Yes
Used interface : Native Win32 interface for Win NT & 2000
Gap handling : Appended to previous track
Used output format : User Defined Encoder
Selected bitrate : 128 kBit/s
Quality : High
Add ID3 tag : No
Command line compressor : C:\Program Files\Exact Audio Copy\Flac\flac.exe
Additional command line options : -V -8 -T "artist=%a" -T "title=%t" -T "album=%g" -T "date=%y" -T "tracknumber=%n" -T "genre=%m" %s
TOC of the extracted CD
Track | Start | Length | Start sector | End sector
---------------------------------------------------------
1 | 0:00.00 | 3:29.57 | 0 | 15731
2 | 3:29.57 | 4:13.58 | 15732 | 34764
3 | 7:43.40 | 2:06.20 | 34765 | 44234
4 | 9:49.60 | 2:56.55 | 44235 | 57489
5 | 12:46.40 | 2:17.72 | 57490 | 67836
6 | 15:04.37 | 4:14.33 | 67837 | 86919
7 | 19:18.70 | 2:45.27 | 86920 | 99321
8 | 22:04.22 | 3:57.48 | 99322 | 117144
9 | 26:01.70 | 2:46.25 | 117145 | 129619
10 | 28:48.20 | 3:16.55 | 129620 | 144374
11 | 32:05.00 | 3:15.40 | 144375 | 159039
12 | 35:20.40 | 3:00.60 | 159040 | 172599
13 | 38:21.25 | 2:47.37 | 172600 | 185161
14 | 41:08.62 | 2:18.65 | 185162 | 195576
15 | 43:27.52 | 2:43.58 | 195577 | 207859
16 | 46:11.35 | 2:43.20 | 207860 | 220104
17 | 48:54.55 | 2:54.22 | 220105 | 233176
Track 1
Filename Y:\EACrips\Charlotte Church - Voice of an Angel [1998]\01 Pie Jesu.wav
Pre-gap length 0:00:02.00
Peak level 30.0 %
Track quality 100.0 %
Test CRC 011E6703
Copy CRC 011E6703
Accurately ripped (confidence 9) [46E6427E]
Copy OK
Track 2
Filename Y:\EACrips\Charlotte Church - Voice of an Angel [1998]\02 Panis Angelicus.wav
Pre-gap length 0:00:03.00
Peak level 84.2 %
Track quality 100.0 %
Test CRC 29E7A06A
Copy CRC 29E7A06A
Accurately ripped (confidence 9) [4C3EB1C7]
Copy OK
Track 3
Filename Y:\EACrips\Charlotte Church - Voice of an Angel [1998]\03 In Trutina.wav
Pre-gap length 0:00:02.15
Peak level 20.6 %
Track quality 100.0 %
Test CRC E50E1A07
Copy CRC E50E1A07
Accurately ripped (confidence 10) [4A81BAFA]
Copy OK
Track 4
Filename Y:\EACrips\Charlotte Church - Voice of an Angel [1998]\04 The Lord's Prayer.wav
Peak level 87.0 %
Track quality 100.0 %
Test CRC 3924D619
Copy CRC 3924D619
Accurately ripped (confidence 10) [984F9A87]
Copy OK
Track 5
Filename Y:\EACrips\Charlotte Church - Voice of an Angel [1998]\05 Jerusalem.wav
Pre-gap length 0:00:03.10
Peak level 61.7 %
Track quality 100.0 %
Test CRC F17CDE46
Copy CRC F17CDE46
Accurately ripped (confidence 10) [4948049E]
Copy OK
Track 6
Filename Y:\EACrips\Charlotte Church - Voice of an Angel [1998]\06 Ave Maria.wav
Pre-gap length 0:00:03.22
Peak level 22.0 %
Track quality 100.0 %
Test CRC 1BEFF875
Copy CRC 1BEFF875
Accurately ripped (confidence 10) [6C83D32A]
Copy OK
Track 7
Filename Y:\EACrips\Charlotte Church - Voice of an Angel [1998]\07 Psalm 23.wav
Pre-gap length 0:00:04.68
Peak level 27.5 %
Track quality 99.9 %
Test CRC B9B02351
Copy CRC B9B02351
Accurately ripped (confidence 10) [6CF2580F]
Copy OK
Track 8
Filename Y:\EACrips\Charlotte Church - Voice of an Angel [1998]\08 I Vow to Thee, My Country.wav
Pre-gap length 0:00:03.30
Peak level 62.1 %
Track quality 100.0 %
Test CRC DD405331
Copy CRC DD405331
Accurately ripped (confidence 9) [65207CFE]
Copy OK
Track 9
Filename Y:\EACrips\Charlotte Church - Voice of an Angel [1998]\09 Danny Boy.wav
Pre-gap length 0:00:02.58
Peak level 31.2 %
Track quality 100.0 %
Test CRC 9CD5AABB
Copy CRC 9CD5AABB
Accurately ripped (confidence 9) [D53F8453]
Copy OK
Track 10
Filename Y:\EACrips\Charlotte Church - Voice of an Angel [1998]\10 My Lagan Love.wav
Pre-gap length 0:00:01.60
Peak level 26.0 %
Track quality 100.0 %
Test CRC 658C6775
Copy CRC 658C6775
Accurately ripped (confidence 10) [DAAEF570]
Copy OK
Track 11
Filename Y:\EACrips\Charlotte Church - Voice of an Angel [1998]\11 Suo-Gân.wav
Pre-gap length 0:00:02.68
Peak level 25.0 %
Track quality 100.0 %
Test CRC 2FE3923A
Copy CRC 2FE3923A
Accurately ripped (confidence 10) [5F22EB0A]
Copy OK
Track 12
Filename Y:\EACrips\Charlotte Church - Voice of an Angel [1998]\12 A Lullaby.wav
Pre-gap length 0:00:04.45
Peak level 27.5 %
Track quality 100.0 %
Test CRC 328ECF2D
Copy CRC 328ECF2D
Accurately ripped (confidence 10) [88312212]
Copy OK
Track 13
Filename Y:\EACrips\Charlotte Church - Voice of an Angel [1998]\13 Amazing Grace.wav
Pre-gap length 0:00:02.48
Peak level 56.8 %
Track quality 100.0 %
Test CRC 3FE2CE54
Copy CRC 3FE2CE54
Accurately ripped (confidence 10) [93B3DA24]
Copy OK
Track 14
Filename Y:\EACrips\Charlotte Church - Voice of an Angel [1998]\14 Three Welsh Bird Songs- Y Gylfinir.wav
Pre-gap length 0:00:05.12
Peak level 30.4 %
Track quality 100.0 %
Test CRC 644E2A75
Copy CRC 644E2A75
Accurately ripped (confidence 10) [E9137F07]
Copy OK
Track 15
Filename Y:\EACrips\Charlotte Church - Voice of an Angel [1998]\15 Three Welsh Bird Songs- Tylluanod.wav
Peak level 26.5 %
Track quality 100.0 %
Test CRC E661DD24
Copy CRC E661DD24
Accurately ripped (confidence 10) [3F5952B2]
Copy OK
Track 16
Filename Y:\EACrips\Charlotte Church - Voice of an Angel [1998]\16 Three Welsh Bird Songs- Mae Hiraeth Yn y.wav
Peak level 38.4 %
Track quality 100.0 %
Test CRC 0CFEC529
Copy CRC 0CFEC529
Accurately ripped (confidence 10) [7A54DF60]
Copy OK
Track 17
Filename Y:\EACrips\Charlotte Church - Voice of an Angel [1998]\17 When at Night I Go to Sleep.wav
Pre-gap length 0:00:06.73
Peak level 26.7 %
Track quality 100.0 %
Test CRC 1D243CDC
Copy CRC 1D243CDC
Accurately ripped (confidence 10) [234DCC39]
Copy OK
All tracks accurately ripped
No errors occurred
End of status report

CUE

REM GENRE Classical
REM DATE 1998
REM DISCID DD0C2511
REM COMMENT "ExactAudioCopy v0.99pb4"
PERFORMER "Charlotte Church"
TITLE "Voice of an Angel"
FILE "01 - Pie Jesu.wav" WAVE
TRACK 01 AUDIO
TITLE "Pie Jesu"
PERFORMER "Charlotte Church"
ISRC GASLS9800001
INDEX 01 00:00:00
TRACK 02 AUDIO
TITLE "Panis Angelicus"
PERFORMER "Charlotte Church"
ISRC GASLS9800007
INDEX 00 03:26:57
FILE "02 - Panis Angelicus.wav" WAVE
INDEX 01 00:00:00
TRACK 03 AUDIO
TITLE "In Trutina"
PERFORMER "Charlotte Church"
ISRC GASLS9800003
INDEX 00 04:11:43
FILE "03 - In Trutina.wav" WAVE
INDEX 01 00:00:00
FILE "04 - The Lord's Prayer.wav" WAVE
TRACK 04 AUDIO
TITLE "The Lord's Prayer"
PERFORMER "Charlotte Church"
ISRC GASLS9800004
INDEX 01 00:00:00
TRACK 05 AUDIO
TITLE "Jerusalem"
PERFORMER "Charlotte Church"
ISRC GASLS9800005
INDEX 00 02:53:45
FILE "05 - Jerusalem.wav" WAVE
INDEX 01 00:00:00
TRACK 06 AUDIO
TITLE "Ave Maria"
PERFORMER "Charlotte Church"
ISRC GASLS9800006
INDEX 00 02:14:50
FILE "06 - Ave Maria.wav" WAVE
INDEX 01 00:00:00
TRACK 07 AUDIO
TITLE "Psalm 23"
PERFORMER "Charlotte Church"
ISRC GASLS9800002
INDEX 00 04:09:40
FILE "07 - Psalm 23.wav" WAVE
INDEX 01 00:00:00
TRACK 08 AUDIO
TITLE "I Vow to Thee, My Country"
PERFORMER "Charlotte Church"
ISRC GASLS9800008
INDEX 00 02:41:72
FILE "08 - I Vow to Thee, My Country.wav" WAVE
INDEX 01 00:00:00
TRACK 09 AUDIO
TITLE "Danny Boy"
PERFORMER "Charlotte Church"
ISRC GASLS9800009
INDEX 00 03:54:65
FILE "09 - Danny Boy.wav" WAVE
INDEX 01 00:00:00
TRACK 10 AUDIO
TITLE "My Lagan Love"
PERFORMER "Charlotte Church"
ISRC GASLS9800012
INDEX 00 02:44:40
FILE "10 - My Lagan Love.wav" WAVE
INDEX 01 00:00:00
TRACK 11 AUDIO
TITLE "Suo Gân"
PERFORMER "Charlotte Church"
ISRC GASLS9800011
INDEX 00 03:13:62
FILE "11 - Suo Gan.wav" WAVE
INDEX 01 00:00:00
TRACK 12 AUDIO
TITLE "A Lullaby"
PERFORMER "Charlotte Church"
ISRC GASLS9800010
INDEX 00 03:10:70
FILE "12 - A Lullaby.wav" WAVE
INDEX 01 00:00:00
TRACK 13 AUDIO
TITLE "Amazing Grace"
PERFORMER "Charlotte Church"
ISRC GASLS9800013
INDEX 00 02:58:12
FILE "13 - Amazing Grace.wav" WAVE
INDEX 01 00:00:00
TRACK 14 AUDIO
TITLE "Three Welsh Bird Songs: Y Gylfinir"
PERFORMER "Charlotte Church"
ISRC GASLS9800014
INDEX 00 02:42:25
FILE "14 - Three Welsh Bird Songs - Y Gylfinir.wav" WAVE
INDEX 01 00:00:00
FILE "15 - Three Welsh Bird Songs - Tylluanod.wav" WAVE
TRACK 15 AUDIO
TITLE "Three Welsh Bird Songs: Tylluanod"
PERFORMER "Charlotte Church"
ISRC GASLS9800015
INDEX 01 00:00:00
FILE "16 - Three Welsh Bird Songs - Mae Hiraeth Yn Y Mor.wav" WAVE
TRACK 16 AUDIO
TITLE "Three Welsh Bird Songs - Mae Hiraeth Yn Y Mor"
PERFORMER "Charlotte Church"
ISRC GASLS9800016
INDEX 01 00:00:00
TRACK 17 AUDIO
TITLE "When at Night I Go to Sleep"
PERFORMER "Charlotte Church"
ISRC GASLS9800017
INDEX 00 02:36:22
FILE "17 - When at Night I Go to Sleep.wav" WAVE
INDEX 01 00:00:00

1999 - Charlotte Church

01 - Just Wave Hello (03:59)
02 - La Pastorella (The Little Shepherdess) From 'Soirees Musicales' (02:29)
03 - Barcarolle (Night Of Stars, And Night Of Love) From 'The Tales Of Hoffmann' (02:41)
04 - O Mio Babbino Caro (Oh, My Beloved Daddy) From 'Gianni Schicchi' (02:22)
05 - Lascia Ch'io Pianga (Let Me Weep) From 'Rinaldo' (04:17)
06 - Guide Me Oh Thou Great Redeemer (Cwm Rhondda) (02:40)
07 - The Holy City (Last Night I Lay Asleeping) (04:57)
08 - Plaisir D'amour (03:29)
09 - Summertime From 'Porgy And Bess' (03:07)
10 - Ah! Je Dis De Me Voir Si Belle (The Jewel Song) From 'Faust' (02:08)
11 - Voi Che Sapete (Tell Me What Love Is. What Can It Be) From 'The Marriage Of Figaro' (02:38)
12 - She Moved Through The Fair (03:03)
13 - Songs My Mother Taught Me, Op. 55, No. 4 (02:25)
14 - Bist Du Bei Mir (If Thou Are Near When Life Is Closing) (02:31)
15 - 'Tis The Last Rose Of Summer (03:19)
16 - Men Of Harlech (Wele Goel Certh) (03:21)
17 - Lullaby (Roses Whisper Goodnight) (02:09)

LOG

Exact Audio Copy V0.99 prebeta 4 from 23. January 2008
EAC extraction logfile from 9. May 2009, 1:49
Charlotte Church / Charlotte Church
Used drive : SONY DVD RW DRU-840A Adapter: 1 ID: 0
Read mode : Secure
Utilize accurate stream : Yes
Defeat audio cache : Yes
Make use of C2 pointers : No
Read offset correction : 6
Overread into Lead-In and Lead-Out : No
Fill up missing offset samples with silence : Yes
Delete leading and trailing silent blocks : No
Null samples used in CRC calculations : Yes
Used interface : Native Win32 interface for Win NT & 2000
Gap handling : Appended to previous track
Used output format : User Defined Encoder
Selected bitrate : 320 kBit/s
Quality : High
Add ID3 tag : No
Command line compressor : C:\Program Files\FLAC\flac.exe
Additional command line options : -8 -V -T "ARTIST=%a" -T "TITLE=%t" -T "ALBUM=%g" -T "DATE=%y" -T "TRACKNUMBER=%n" -T "GENRE=%m" -T "COMMENT=EAC FLAC -8" %s
TOC of the extracted CD
Track | Start | Length | Start sector | End sector
---------------------------------------------------------
1 | 0:00.00 | 3:59.00 | 0 | 17924
2 | 3:59.00 | 2:29.20 | 17925 | 29119
3 | 6:28.20 | 2:40.67 | 29120 | 41186
4 | 9:09.12 | 2:21.58 | 41187 | 51819
5 | 11:30.70 | 4:16.62 | 51820 | 71081
6 | 15:47.57 | 2:39.55 | 71082 | 83061
7 | 18:27.37 | 4:56.58 | 83062 | 105319
8 | 23:24.20 | 3:28.57 | 105320 | 120976
9 | 26:53.02 | 3:06.45 | 120977 | 134971
10 | 29:59.47 | 2:07.70 | 134972 | 144566
11 | 32:07.42 | 2:37.60 | 144567 | 156401
12 | 34:45.27 | 3:03.18 | 156402 | 170144
13 | 37:48.45 | 2:24.70 | 170145 | 181014
14 | 40:13.40 | 2:31.20 | 181015 | 192359
15 | 42:44.60 | 3:19.22 | 192360 | 207306
16 | 46:04.07 | 3:20.65 | 207307 | 222371
17 | 49:24.72 | 2:08.50 | 222372 | 232021
Track 1
Filename C:\FlowerJewel\EAC Ripped\Charlotte Church - Charlotte Church (1998)(flac)\01 - Just Wave Hello.wav
Pre-gap length 0:00:02.00
Peak level 89.1 %
Track quality 100.0 %
Test CRC AC5214B8
Copy CRC AC5214B8
Accurately ripped (confidence 9) [2C75111F]
Copy OK
Track 2
Filename C:\FlowerJewel\EAC Ripped\Charlotte Church - Charlotte Church (1998)(flac)\02 - La Pastorella (The Little Shepherdess) From 'Soirees Musicales'.wav
Pre-gap length 0:00:05.03
Peak level 98.9 %
Track quality 100.0 %
Test CRC B5687472
Copy CRC B5687472
Accurately ripped (confidence 9) [9F4556AC]
Copy OK
Track 3
Filename C:\FlowerJewel\EAC Ripped\Charlotte Church - Charlotte Church (1998)(flac)\03 - Barcarolle (Night Of Stars, And Night Of Love) From 'The Tales Of Hoffmann'.wav
Pre-gap length 0:00:01.33
Peak level 98.8 %
Track quality 100.0 %
Test CRC C76F93E8
Copy CRC C76F93E8
Accurately ripped (confidence 9) [4A23939F]
Copy OK
Track 4
Filename C:\FlowerJewel\EAC Ripped\Charlotte Church - Charlotte Church (1998)(flac)\04 - O Mio Babbino Caro (Oh, My Beloved Daddy) From 'Gianni Schicchi'.wav
Pre-gap length 0:00:02.42
Peak level 88.0 %
Track quality 99.9 %
Test CRC 3B0627F9
Copy CRC 3B0627F9
Accurately ripped (confidence 9) [78EB57B8]
Copy OK
Track 5
Filename C:\FlowerJewel\EAC Ripped\Charlotte Church - Charlotte Church (1998)(flac)\05 - Lascia Ch'io Pianga (Let Me Weep) From 'Rinaldo'.wav
Pre-gap length 0:00:02.30
Peak level 74.1 %
Track quality 100.0 %
Test CRC 247DF9AE
Copy CRC 247DF9AE
Accurately ripped (confidence 9) [14E1F945]
Copy OK
Track 6
Filename C:\FlowerJewel\EAC Ripped\Charlotte Church - Charlotte Church (1998)(flac)\06 - Guide Me Oh Thou Great Redeemer (Cwm Rhondda).wav
Pre-gap length 0:00:02.22
Peak level 99.5 %
Track quality 99.9 %
Test CRC 9F8C60B1
Copy CRC 9F8C60B1
Accurately ripped (confidence 9) [F1404DBC]
Copy OK
Track 7
Filename C:\FlowerJewel\EAC Ripped\Charlotte Church - Charlotte Church (1998)(flac)\07 - The Holy City (Last Night I Lay Asleeping).wav
Pre-gap length 0:00:01.17
Peak level 98.9 %
Track quality 100.0 %
Test CRC 02BC4B20
Copy CRC 02BC4B20
Accurately ripped (confidence 9) [B79B7B28]
Copy OK
Track 8
Filename C:\FlowerJewel\EAC Ripped\Charlotte Church - Charlotte Church (1998)(flac)\08 - Plaisir D'amour.wav
Pre-gap length 0:00:02.23
Peak level 98.8 %
Track quality 100.0 %
Test CRC B31D1A4B
Copy CRC B31D1A4B
Accurately ripped (confidence 9) [0DE7D826]
Copy OK
Track 9
Filename C:\FlowerJewel\EAC Ripped\Charlotte Church - Charlotte Church (1998)(flac)\09 - Summertime From 'Porgy And Bess'.wav
Pre-gap length 0:00:02.55
Peak level 72.0 %
Track quality 99.9 %
Test CRC A3C31967
Copy CRC A3C31967
Accurately ripped (confidence 9) [0DFC443D]
Copy OK
Track 10
Filename C:\FlowerJewel\EAC Ripped\Charlotte Church - Charlotte Church (1998)(flac)\10 - Ah! Je Dis De Me Voir Si Belle (The Jewel Song) From 'Faust'.wav
Pre-gap length 0:00:03.00
Peak level 99.0 %
Track quality 100.0 %
Test CRC 4B53D52A
Copy CRC 4B53D52A
Accurately ripped (confidence 9) [FD67EA5F]
Copy OK
Track 11
Filename C:\FlowerJewel\EAC Ripped\Charlotte Church - Charlotte Church (1998)(flac)\11 - Voi Che Sapete (Tell Me What Love Is. What Can It Be) From 'The Marriage Of Figaro'.wav
Pre-gap length 0:00:02.27
Peak level 98.9 %
Track quality 100.0 %
Test CRC 5ECB5DE6
Copy CRC 5ECB5DE6
Accurately ripped (confidence 9) [22992D56]
Copy OK
Track 12
Filename C:\FlowerJewel\EAC Ripped\Charlotte Church - Charlotte Church (1998)(flac)\12 - She Moved Through The Fair.wav
Pre-gap length 0:00:01.35
Peak level 98.9 %
Track quality 100.0 %
Test CRC 735C45CC
Copy CRC 735C45CC
Accurately ripped (confidence 9) [52F0426D]
Copy OK
Track 13
Filename C:\FlowerJewel\EAC Ripped\Charlotte Church - Charlotte Church (1998)(flac)\13 - Songs My Mother Taught Me, Op. 55, No. 4.wav
Pre-gap length 0:00:01.68
Peak level 66.8 %
Track quality 100.0 %
Test CRC DB73DA14
Copy CRC DB73DA14
Accurately ripped (confidence 9) [578F4A9D]
Copy OK
Track 14
Filename C:\FlowerJewel\EAC Ripped\Charlotte Church - Charlotte Church (1998)(flac)\14 - Bist Du Bei Mir (If Thou Are Near When Life Is Closing).wav
Pre-gap length 0:00:01.23
Peak level 73.3 %
Track quality 100.0 %
Test CRC E4DE4C37
Copy CRC E4DE4C37
Accurately ripped (confidence 9) [8D2DD888]
Copy OK
Track 15
Filename C:\FlowerJewel\EAC Ripped\Charlotte Church - Charlotte Church (1998)(flac)\15 - 'Tis The Last Rose Of Summer.wav
Pre-gap length 0:00:01.28
Peak level 73.5 %
Track quality 100.0 %
Test CRC 371AB696
Copy CRC 371AB696
Accurately ripped (confidence 9) [9FD52D1A]
Copy OK
Track 16
Filename C:\FlowerJewel\EAC Ripped\Charlotte Church - Charlotte Church (1998)(flac)\16 - Men Of Harlech (Wele Goel Certh).wav
Pre-gap length 0:00:02.05
Peak level 99.0 %
Track quality 100.0 %
Test CRC 14FBDDA4
Copy CRC 14FBDDA4
Accurately ripped (confidence 9) [DF8B8CB3]
Copy OK
Track 17
Filename C:\FlowerJewel\EAC Ripped\Charlotte Church - Charlotte Church (1998)(flac)\17 - Lullaby (Roses Whisper Goodnight).wav
Pre-gap length 0:00:02.12
Peak level 76.9 %
Track quality 100.0 %
Test CRC 1B779F84
Copy CRC 1B779F84
Accurately ripped (confidence 9) [5C03A4DC]
Copy OK
All tracks accurately ripped
No errors occurred
End of status report

CUE

REM GENRE Classical
REM DATE 1999
REM DISCID F00C1511
REM COMMENT "ExactAudioCopy v0.99pb4"
PERFORMER "Charlotte Church"
TITLE "Charlotte Church"
FILE "01 - Just Wave Hello.wav" WAVE
TRACK 01 AUDIO
TITLE "Just Wave Hello"
PERFORMER "Charlotte Church"
INDEX 01 00:00:00
TRACK 02 AUDIO
TITLE "La Pastorella (The Little Shepherdess) From 'Soirees Musicales'"
PERFORMER "Charlotte Church"
INDEX 00 03:53:72
FILE "02 - La Pastorella (The Little Shepherdess) From 'Soirees Musicales'.wav" WAVE
INDEX 01 00:00:00
TRACK 03 AUDIO
TITLE "Barcarolle (Night Of Stars, And Night Of Love) From 'The Tales Of Hoffmann'"
PERFORMER "Charlotte Church"
INDEX 00 02:27:62
FILE "03 - Barcarolle (Night Of Stars, And Night Of Love) From 'The Tales Of Hoffmann'.wav" WAVE
INDEX 01 00:00:00
TRACK 04 AUDIO
TITLE "O Mio Babbino Caro (Oh, My Beloved Daddy) From 'Gianni Schicchi'"
PERFORMER "Charlotte Church"
INDEX 00 02:38:25
FILE "04 - O Mio Babbino Caro (Oh, My Beloved Daddy) From 'Gianni Schicchi'.wav" WAVE
INDEX 01 00:00:00
TRACK 05 AUDIO
TITLE "Lascia Ch'io Pianga (Let Me Weep) From 'Rinaldo'"
PERFORMER "Charlotte Church"
INDEX 00 02:19:28
FILE "05 - Lascia Ch'io Pianga (Let Me Weep) From 'Rinaldo'.wav" WAVE
INDEX 01 00:00:00
TRACK 06 AUDIO
TITLE "Guide Me Oh Thou Great Redeemer (Cwm Rhondda)"
PERFORMER "Charlotte Church"
INDEX 00 04:14:40
FILE "06 - Guide Me Oh Thou Great Redeemer (Cwm Rhondda).wav" WAVE
INDEX 01 00:00:00
TRACK 07 AUDIO
TITLE "The Holy City (Last Night I Lay Asleeping)"
PERFORMER "Charlotte Church"
INDEX 00 02:38:38
FILE "07 - The Holy City (Last Night I Lay Asleeping).wav" WAVE
INDEX 01 00:00:00
TRACK 08 AUDIO
TITLE "Plaisir D'amour"
PERFORMER "Charlotte Church"
INDEX 00 04:54:35
FILE "08 - Plaisir D'amour.wav" WAVE
INDEX 01 00:00:00
TRACK 09 AUDIO
TITLE "Summertime From 'Porgy And Bess'"
PERFORMER "Charlotte Church"
INDEX 00 03:26:02
FILE "09 - Summertime From 'Porgy And Bess'.wav" WAVE
INDEX 01 00:00:00
TRACK 10 AUDIO
TITLE "Ah! Je Dis De Me Voir Si Belle (The Jewel Song) From 'Faust'"
PERFORMER "Charlotte Church"
INDEX 00 03:03:45
FILE "10 - Ah! Je Dis De Me Voir Si Belle (The Jewel Song) From 'Faust'.wav" WAVE
INDEX 01 00:00:00
TRACK 11 AUDIO
TITLE "Voi Che Sapete (Tell Me What Love Is. What Can It Be) From 'The Marriage Of F..."
PERFORMER "Charlotte Church"
INDEX 00 02:05:43
FILE "11 - Voi Che Sapete (Tell Me What Love Is. What Can It Be) From 'The Marriage Of Figaro'.wav" WAVE
INDEX 01 00:00:00
TRACK 12 AUDIO
TITLE "She Moved Through The Fair"
PERFORMER "Charlotte Church"
INDEX 00 02:36:25
FILE "12 - She Moved Through The Fair.wav" WAVE
INDEX 01 00:00:00
TRACK 13 AUDIO
TITLE "Songs My Mother Taught Me, Op. 55, No. 4"
PERFORMER "Charlotte Church"
INDEX 00 03:01:25
FILE "13 - Songs My Mother Taught Me, Op. 55, No. 4.wav" WAVE
INDEX 01 00:00:00
TRACK 14 AUDIO
TITLE "Bist Du Bei Mir (If Thou Are Near When Life Is Closing)"
PERFORMER "Charlotte Church"
INDEX 00 02:23:47
FILE "14 - Bist Du Bei Mir (If Thou Are Near When Life Is Closing).wav" WAVE
INDEX 01 00:00:00
TRACK 15 AUDIO
TITLE "'Tis The Last Rose Of Summer"
PERFORMER "Charlotte Church"
INDEX 00 02:29:67
FILE "15 - 'Tis The Last Rose Of Summer.wav" WAVE
INDEX 01 00:00:00
TRACK 16 AUDIO
TITLE "Men Of Harlech (Wele Goel Certh)"
PERFORMER "Charlotte Church"
INDEX 00 03:17:17
FILE "16 - Men Of Harlech (Wele Goel Certh).wav" WAVE
INDEX 01 00:00:00
TRACK 17 AUDIO
TITLE "Lullaby (Roses Whisper Goodnight)"
PERFORMER "Charlotte Church"
INDEX 00 03:18:53
FILE "17 - Lullaby (Roses Whisper Goodnight).wav" WAVE
INDEX 01 00:00:00

2000 - Dream a Dream

01 - Dream a Dream (03:54)
02 - O Come, All Ye Faithful (03:22)
03 - The Little Drummer Boy (02:57)
04 - Mary's Boy Child (03:31)
05 - Ding Dong! Merrily On High (02:18)
06 - Winter Wonderland (03:04)
07 - The Christmas Song (03:30)
08 - Hark! The Herald Angels Sing (03:17)
09 - The Coventry Carol (02:32)
10 - Joy To The World (02:13)
11 - When A Child Is Born (02:30)
12 - What Child Is This? (02:47)
13 - God Rest Ye Merry, Gentlemen (02:00)
14 - Draw Tua Bethlehem / Far Over Bethlehem (03:37)
15 - Ave Maria (02:50)
16 - Gabriel's Message (02:43)
17 - O Holy Night (04:22)
18 - Lo! How A Rose E'er Blooming (02:33)
19 - Silent Night (03:47)

LOG

Exact Audio Copy V0.99 prebeta 4 from 23. January 2008
EAC extraction logfile from 5. November 2008, 22:11
Charlotte Church / Dream a Dream
Used drive : TSSTcorpCDDVDW SH-S203B Adapter: 5 ID: 0
Read mode : Secure
Utilize accurate stream : Yes
Defeat audio cache : Yes
Make use of C2 pointers : No
Read offset correction : 6
Overread into Lead-In and Lead-Out : No
Fill up missing offset samples with silence : Yes
Delete leading and trailing silent blocks : No
Null samples used in CRC calculations : Yes
Used interface : Native Win32 interface for Win NT & 2000
Gap handling : Appended to previous track
Used output format : User Defined Encoder
Selected bitrate : 320 kBit/s
Quality : High
Add ID3 tag : No
Command line compressor : C:\Program Files\FLAC\flac.exe
Additional command line options : -V -8 -T "artist=%a" -T "title=%t" -T "album=%g" -T "date=%y" -T "tracknumber=%n" -T "genre=%m" %s
TOC of the extracted CD
Track | Start | Length | Start sector | End sector
---------------------------------------------------------
1 | 0:00.00 | 3:54.32 | 0 | 17581
2 | 3:54.32 | 3:21.68 | 17582 | 32724
3 | 7:16.25 | 2:57.05 | 32725 | 46004
4 | 10:13.30 | 3:31.25 | 46005 | 61854
5 | 13:44.55 | 2:18.35 | 61855 | 72239
6 | 16:03.15 | 3:03.47 | 72240 | 86011
7 | 19:06.62 | 3:29.55 | 86012 | 101741
8 | 22:36.42 | 3:17.20 | 101742 | 116536
9 | 25:53.62 | 2:31.73 | 116537 | 127934
10 | 28:25.60 | 2:12.72 | 127935 | 137906
11 | 30:38.57 | 2:29.45 | 137907 | 149126
12 | 33:08.27 | 2:46.40 | 149127 | 161616
13 | 35:54.67 | 2:00.33 | 161617 | 170649
14 | 37:55.25 | 3:37.07 | 170650 | 186931
15 | 41:32.32 | 2:50.25 | 186932 | 199706
16 | 44:22.57 | 2:43.03 | 199707 | 211934
17 | 47:05.60 | 4:22.17 | 211935 | 231601
18 | 51:28.02 | 2:33.00 | 231602 | 243076
19 | 54:01.02 | 3:47.13 | 243077 | 260114
Track 1
Filename D:\What.cd\Charlotte Church - Dream a Dream\01. Dream a Dream.wav
Pre-gap length 0:00:02.00
Peak level 86.5 %
Track quality 99.9 %
Test CRC 0E85346B
Copy CRC 0E85346B
Accurately ripped (confidence 7) [3DB96C59]
Copy OK
Track 2
Filename D:\What.cd\Charlotte Church - Dream a Dream\02. O Come, All Ye Faithful.wav
Pre-gap length 0:00:04.53
Peak level 99.7 %
Track quality 99.9 %
Test CRC 84DD0EB6
Copy CRC 84DD0EB6
Accurately ripped (confidence 7) [BFAF52F7]
Copy OK
Track 3
Filename D:\What.cd\Charlotte Church - Dream a Dream\03. The Little Drummer Boy.wav
Peak level 94.4 %
Track quality 100.0 %
Test CRC C527618A
Copy CRC C527618A
Accurately ripped (confidence 7) [13614DD5]
Copy OK
Track 4
Filename D:\What.cd\Charlotte Church - Dream a Dream\04. Mary's boy child.wav
Pre-gap length 0:00:01.84
Peak level 100.0 %
Track quality 100.0 %
Test CRC 51ECBFB3
Copy CRC 51ECBFB3
Accurately ripped (confidence 7) [E32DFEB0]
Copy OK
Track 5
Filename D:\What.cd\Charlotte Church - Dream a Dream\05. Ding Dong! Merrily On High.wav
Pre-gap length 0:00:01.64
Peak level 94.6 %
Track quality 99.9 %
Test CRC 7B44A0FF
Copy CRC 7B44A0FF
Accurately ripped (confidence 7) [3ECCB995]
Copy OK
Track 6
Filename D:\What.cd\Charlotte Church - Dream a Dream\06. Winter Wonderland.wav
Peak level 96.3 %
Track quality 99.9 %
Test CRC 3AD5C070
Copy CRC 3AD5C070
Accurately ripped (confidence 7) [01035AD2]
Copy OK
Track 7
Filename D:\What.cd\Charlotte Church - Dream a Dream\07. The Christmas Song.wav
Pre-gap length 0:00:01.86
Peak level 85.2 %
Track quality 100.0 %
Test CRC E00B16E5
Copy CRC E00B16E5
Accurately ripped (confidence 7) [E3214A00]
Copy OK
Track 8
Filename D:\What.cd\Charlotte Church - Dream a Dream\08. Hark! The Herald Angels Sing.wav
Pre-gap length 0:00:02.33
Peak level 95.3 %
Track quality 100.0 %
Test CRC 19833DD8
Copy CRC 19833DD8
Accurately ripped (confidence 7) [90082C70]
Copy OK
Track 9
Filename D:\What.cd\Charlotte Church - Dream a Dream\09. The Coventry Carol.wav
Pre-gap length 0:00:01.22
Peak level 93.8 %
Track quality 100.0 %
Test CRC E925ABC6
Copy CRC E925ABC6
Accurately ripped (confidence 7) [DA31EB8F]
Copy OK
Track 10
Filename D:\What.cd\Charlotte Church - Dream a Dream\10. Joy To The World.wav
Pre-gap length 0:00:01.33
Peak level 94.4 %
Track quality 100.0 %
Test CRC 555175CB
Copy CRC 555175CB
Accurately ripped (confidence 7) [3344A35C]
Copy OK
Track 11
Filename D:\What.cd\Charlotte Church - Dream a Dream\11. When A Child Is Born.wav
Peak level 92.3 %
Track quality 100.0 %
Test CRC FE78CD42
Copy CRC FE78CD42
Accurately ripped (confidence 7) [D00C3B7A]
Copy OK
Track 12
Filename D:\What.cd\Charlotte Church - Dream a Dream\12. What Child Is This .wav
Peak level 94.2 %
Track quality 100.0 %
Test CRC C2A9934D
Copy CRC C2A9934D
Accurately ripped (confidence 7) [1AAA4196]
Copy OK
Track 13
Filename D:\What.cd\Charlotte Church - Dream a Dream\13. God Rest Ye Merry, Gentlemen.wav
Pre-gap length 0:00:02.16
Peak level 94.2 %
Track quality 100.0 %
Test CRC 4F1FE100
Copy CRC 4F1FE100
Accurately ripped (confidence 7) [CB4248F6]
Copy OK
Track 14
Filename D:\What.cd\Charlotte Church - Dream a Dream\14. Draw Tua Bethlehem,Far Over Bethlehem.wav
Peak level 94.6 %
Track quality 100.0 %
Test CRC 11A61310
Copy CRC 11A61310
Accurately ripped (confidence 7) [D2720432]
Copy OK
Track 15
Filename D:\What.cd\Charlotte Church - Dream a Dream\15. Ave Maria.wav
Pre-gap length 0:00:02.33
Peak level 90.6 %
Track quality 99.9 %
Test CRC 4BAF5C55
Copy CRC 4BAF5C55
Accurately ripped (confidence 7) [3B28A8A8]
Copy OK
Track 16
Filename D:\What.cd\Charlotte Church - Dream a Dream\16. Gabriel's Message.wav
Pre-gap length 0:00:01.60
Peak level 73.6 %
Track quality 99.9 %
Test CRC 9EBBDE0C
Copy CRC 9EBBDE0C
Accurately ripped (confidence 7) [30D6E7F6]
Copy OK
Track 17
Filename D:\What.cd\Charlotte Church - Dream a Dream\17. O Holy Night.wav
Pre-gap length 0:00:01.64
Peak level 94.3 %
Track quality 100.0 %
Test CRC 21B24CC2
Copy CRC 21B24CC2
Accurately ripped (confidence 7) [4D80F3C3]
Copy OK
Track 18
Filename D:\What.cd\Charlotte Church - Dream a Dream\18. Lo! How A Rose E'er Blooming.wav
Pre-gap length 0:00:01.20
Peak level 81.0 %
Track quality 100.0 %
Test CRC BEF3FA2B
Copy CRC BEF3FA2B
Accurately ripped (confidence 7) [7EC0CA4D]
Copy OK
Track 19
Filename D:\What.cd\Charlotte Church - Dream a Dream\19. Silent Night.wav
Pre-gap length 0:00:01.16
Peak level 100.0 %
Track quality 100.0 %
Test CRC 54F702AC
Copy CRC 54F702AC
Accurately ripped (confidence 7) [FA87E9D7]
Copy OK
All tracks accurately ripped
No errors occurred
End of status report

CUE

REM GENRE Classical
REM DATE 2000
REM DISCID 1B0D8C13
REM COMMENT "ExactAudioCopy v0.99pb4"
PERFORMER "Charlotte Church"
TITLE "Dream a Dream"
FILE "01 - Dream a Dream.wav" WAVE
TRACK 01 AUDIO
TITLE "Dream a Dream"
PERFORMER "Charlotte Church"
INDEX 01 00:00:00
TRACK 02 AUDIO
TITLE "O Come, All Ye Faithful"
PERFORMER "Charlotte Church"
INDEX 00 03:49:67
FILE "02 - O Come, All Ye Faithful.wav" WAVE
INDEX 01 00:00:00
FILE "03 - The Little Drummer Boy.wav" WAVE
TRACK 03 AUDIO
TITLE "The Little Drummer Boy"
PERFORMER "Charlotte Church"
INDEX 01 00:00:00
TRACK 04 AUDIO
TITLE "Mary's Boy Child"
PERFORMER "Charlotte Church"
INDEX 00 02:55:17
FILE "04 - Mary's Boy Child.wav" WAVE
INDEX 01 00:00:00
TRACK 05 AUDIO
TITLE "Ding Dong! Merrily On High"
PERFORMER "Charlotte Church"
INDEX 00 03:29:52
FILE "05 - Ding Dong! Merrily On High.wav" WAVE
INDEX 01 00:00:00
FILE "06 - Winter Wonderland.wav" WAVE
TRACK 06 AUDIO
TITLE "Winter Wonderland"
PERFORMER "Charlotte Church"
INDEX 01 00:00:00
TRACK 07 AUDIO
TITLE "The Christmas Song"
PERFORMER "Charlotte Church"
INDEX 00 03:01:57
FILE "07 - The Christmas Song.wav" WAVE
INDEX 01 00:00:00
TRACK 08 AUDIO
TITLE "Hark! The Herald Angels Sing"
PERFORMER "Charlotte Church"
INDEX 00 03:27:30
FILE "08 - Hark! The Herald Angels Sing.wav" WAVE
INDEX 01 00:00:00
TRACK 09 AUDIO
TITLE "The Coventry Carol"
PERFORMER "Charlotte Church"
INDEX 00 03:16:03
FILE "09 - The Coventry Carol.wav" WAVE
INDEX 01 00:00:00
TRACK 10 AUDIO
TITLE "Joy To The World"
PERFORMER "Charlotte Church"
INDEX 00 02:30:48
FILE "10 - Joy To The World.wav" WAVE
INDEX 01 00:00:00
FILE "11 - When A Child Is Born.wav" WAVE
TRACK 11 AUDIO
TITLE "When A Child Is Born"
PERFORMER "Charlotte Church"
INDEX 01 00:00:00
FILE "12 - What Child Is This.wav" WAVE
TRACK 12 AUDIO
TITLE "What Child Is This?"
PERFORMER "Charlotte Church"
INDEX 01 00:00:00
TRACK 13 AUDIO
TITLE "God Rest Ye Merry, Gentlemen"
PERFORMER "Charlotte Church"
INDEX 00 02:44:28
FILE "13 - God Rest Ye Merry, Gentlemen.wav" WAVE
INDEX 01 00:00:00
FILE "14 - Draw Tua Bethlehem, Far Over Bethlehem.wav" WAVE
TRACK 14 AUDIO
TITLE "Draw Tua Bethlehem / Far Over Bethlehem"
PERFORMER "Charlotte Church"
INDEX 01 00:00:00
TRACK 15 AUDIO
TITLE "Ave Maria"
PERFORMER "Charlotte Church"
INDEX 00 03:34:57
FILE "15 - Ave Maria.wav" WAVE
INDEX 01 00:00:00
TRACK 16 AUDIO
TITLE "Gabriel's Message"
PERFORMER "Charlotte Church"
INDEX 00 02:48:55
FILE "16 - Gabriel's Message.wav" WAVE
INDEX 01 00:00:00
TRACK 17 AUDIO
TITLE "O Holy Night"
PERFORMER "Charlotte Church"
INDEX 00 02:41:30
FILE "17 - O Holy Night.wav" WAVE
INDEX 01 00:00:00
TRACK 18 AUDIO
TITLE "Lo! How A Rose E'er Blooming"
PERFORMER "Charlotte Church"
INDEX 00 04:21:02
FILE "18 - Lo! How A Rose E'er Blooming.wav" WAVE
INDEX 01 00:00:00
TRACK 19 AUDIO
TITLE "Silent Night"
PERFORMER "Charlotte Church"
INDEX 00 02:31:63
FILE "19 - Silent Night.wav" WAVE
INDEX 01 00:00:00

2001 - Enchantment

01 - Tonight (02:28)
02 - Carrickfergus (04:28)
03 - Habanera (04:28)
04 - Bali Ha'i (04:08)
05 - Papa Can You Hear Me? (02:54)
06 - The Flower Duet (03:57)
07 - The Little Hourse (02:50)
08 - From My First Moment (04:10)
09 - The Water Is Wide (03:11)
10 - Can't Help Lovin' Dat Man (04:18)
11 - The Laughing Song (03:37)
12 - If I Love You (03:35)
13 - A Bit Of Earth (03:57)
14 - Somewhere (02:48)
15 - The Prayer (04:25)

LOG

Exact Audio Copy V0.99 prebeta 5 from 4. May 2009
EAC extraction logfile from 20. March 2010, 19:42
Charlotte Church / Enchantment
Used drive : HL-DT-STRW/DVD GCC-M10N Adapter: 0 ID: 0
Read mode : Secure
Utilize accurate stream : Yes
Defeat audio cache : Yes
Make use of C2 pointers : No
Read offset correction : 102
Overread into Lead-In and Lead-Out : No
Fill up missing offset samples with silence : Yes
Delete leading and trailing silent blocks : No
Null samples used in CRC calculations : Yes
Used interface : Native Win32 interface for Win NT & 2000
Gap handling : Appended to previous track
Used output format : User Defined Encoder
Selected bitrate : 192 kBit/s
Quality : High
Add ID3 tag : No
Command line compressor : C:\Program Files\Exact Audio Copy\Flac\flac.exe
Additional command line options : -V -8 -T "artist=%a" -T "title=%t" -T "album=%g" -T "date=%y" -T "tracknumber=%n" -T "genre=%m" %s
TOC of the extracted CD
Track | Start | Length | Start sector | End sector
---------------------------------------------------------
1 | 0:00.00 | 2:27.60 | 0 | 11084
2 | 2:27.60 | 4:27.60 | 11085 | 31169
3 | 6:55.45 | 4:28.17 | 31170 | 51286
4 | 11:23.62 | 4:07.60 | 51287 | 69871
5 | 15:31.47 | 2:53.38 | 69872 | 82884
6 | 18:25.10 | 3:57.00 | 82885 | 100659
7 | 22:22.10 | 2:50.00 | 100660 | 113409
8 | 25:12.10 | 4:10.20 | 113410 | 132179
9 | 29:22.30 | 3:10.52 | 132180 | 146481
10 | 32:33.07 | 4:17.73 | 146482 | 165829
11 | 36:51.05 | 3:37.27 | 165830 | 182131
12 | 40:28.32 | 3:35.33 | 182132 | 198289
13 | 44:03.65 | 3:57.22 | 198290 | 216086
14 | 48:01.12 | 2:48.23 | 216087 | 228709
15 | 50:49.35 | 4:25.05 | 228710 | 248589
Track 1
Filename C:\wave dumps\Charlotte Church - Enchantment\Charlotte Church - Enchantment - 01 - Tonight.wav
Pre-gap length 0:00:02.00
Peak level 98.8 %
Track quality 100.0 %
Test CRC E0841839
Copy CRC E0841839
Accurately ripped (confidence 5) [21A264A3]
Copy OK
Track 2
Filename C:\wave dumps\Charlotte Church - Enchantment\Charlotte Church - Enchantment - 02 - Carrickfergus.wav
Pre-gap length 0:00:01.17
Peak level 98.8 %
Track quality 100.0 %
Test CRC 453CD290
Copy CRC 453CD290
Accurately ripped (confidence 5) [DC2466CC]
Copy OK
Track 3
Filename C:\wave dumps\Charlotte Church - Enchantment\Charlotte Church - Enchantment - 03 - Habanera.wav
Pre-gap length 0:00:00.77
Peak level 96.6 %
Track quality 100.0 %
Test CRC 580F1B5D
Copy CRC 580F1B5D
Accurately ripped (confidence 5) [6BCBC6A2]
Copy OK
Track 4
Filename C:\wave dumps\Charlotte Church - Enchantment\Charlotte Church - Enchantment - 04 - Bali Ha'i.wav
Pre-gap length 0:00:00.36
Peak level 98.8 %
Track quality 100.0 %
Test CRC 4C20962D
Copy CRC 4C20962D
Accurately ripped (confidence 5) [EA7A8090]
Copy OK
Track 5
Filename C:\wave dumps\Charlotte Church - Enchantment\Charlotte Church - Enchantment - 05 - Papa Can You Hear Me .wav
Pre-gap length 0:00:00.56
Peak level 98.8 %
Track quality 100.0 %
Test CRC 732F5884
Copy CRC 732F5884
Accurately ripped (confidence 4) [B6AC759E]
Copy OK
Track 6
Filename C:\wave dumps\Charlotte Church - Enchantment\Charlotte Church - Enchantment - 06 - The Flower Duet.wav
Pre-gap length 0:00:01.17
Peak level 96.6 %
Track quality 100.0 %
Test CRC CEDC1425
Copy CRC CEDC1425
Accurately ripped (confidence 5) [43E521A1]
Copy OK
Track 7
Filename C:\wave dumps\Charlotte Church - Enchantment\Charlotte Church - Enchantment - 07 - The Little Hourse.wav
Pre-gap length 0:00:00.77
Peak level 98.8 %
Track quality 99.9 %
Test CRC AEEF7FEE
Copy CRC AEEF7FEE
Accurately ripped (confidence 5) [174B3E3D]
Copy OK
Track 8
Filename C:\wave dumps\Charlotte Church - Enchantment\Charlotte Church - Enchantment - 08 - From My First Moment.wav
Pre-gap length 0:00:01.53
Peak level 97.7 %
Track quality 100.0 %
Test CRC 2663696C
Copy CRC 2663696C
Accurately ripped (confidence 5) [CDA82B13]
Copy OK
Track 9
Filename C:\wave dumps\Charlotte Church - Enchantment\Charlotte Church - Enchantment - 09 - The Water Is Wide.wav
Pre-gap length 0:00:01.20
Peak level 94.8 %
Track quality 100.0 %
Test CRC 4E4D818B
Copy CRC 4E4D818B
Accurately ripped (confidence 5) [D018201C]
Copy OK
Track 10
Filename C:\wave dumps\Charlotte Church - Enchantment\Charlotte Church - Enchantment - 10 - Can't Help Lovin' Dat Man.wav
Pre-gap length 0:00:01.13
Peak level 98.8 %
Track quality 100.0 %
Test CRC 89BA07C7
Copy CRC 89BA07C7
Accurately ripped (confidence 5) [0169AC54]
Copy OK
Track 11
Filename C:\wave dumps\Charlotte Church - Enchantment\Charlotte Church - Enchantment - 11 - The Laughing Song.wav
Pre-gap length 0:00:01.37
Peak level 98.8 %
Track quality 100.0 %
Test CRC 7BDE2643
Copy CRC 7BDE2643
Accurately ripped (confidence 5) [32D747A3]
Copy OK
Track 12
Filename C:\wave dumps\Charlotte Church - Enchantment\Charlotte Church - Enchantment - 12 - If I Love You.wav
Pre-gap length 0:00:01.26
Peak level 98.8 %
Track quality 100.0 %
Test CRC 9DFF60B4
Copy CRC 9DFF60B4
Accurately ripped (confidence 5) [DC900661]
Copy OK
Track 13
Filename C:\wave dumps\Charlotte Church - Enchantment\Charlotte Church - Enchantment - 13 - A Bit Of Earth.wav
Pre-gap length 0:00:01.10
Peak level 98.8 %
Track quality 100.0 %
Test CRC DDA8835A
Copy CRC DDA8835A
Accurately ripped (confidence 5) [CFB5EB4E]
Copy OK
Track 14
Filename C:\wave dumps\Charlotte Church - Enchantment\Charlotte Church - Enchantment - 14 - Somewhere.wav
Pre-gap length 0:00:01.29
Peak level 98.8 %
Track quality 100.0 %
Test CRC E8A9AB1C
Copy CRC E8A9AB1C
Accurately ripped (confidence 5) [FB0988F0]
Copy OK
Track 15
Filename C:\wave dumps\Charlotte Church - Enchantment\Charlotte Church - Enchantment - 15 - The Prayer.wav
Pre-gap length 0:00:00.70
Peak level 98.8 %
Track quality 100.0 %
Test CRC 9B5795AA
Copy CRC 9B5795AA
Accurately ripped (confidence 4) [050C9B75]
Copy OK
All tracks accurately ripped
No errors occurred
End of status report

CUE

REM GENRE Classical
REM DATE 2001
REM DISCID C40CF20F
REM COMMENT "ExactAudioCopy v0.99pb5"
PERFORMER "Charlotte Church"
TITLE "Enchantment"
FILE "01 - Tonight.wav" WAVE
TRACK 01 AUDIO
TITLE "Tonight"
PERFORMER "Charlotte Church"
INDEX 01 00:00:00
TRACK 02 AUDIO
TITLE "Carrickfergus"
PERFORMER "Charlotte Church"
INDEX 00 02:26:47
FILE "02 - Carrickfergus.wav" WAVE
INDEX 01 00:00:00
TRACK 03 AUDIO
TITLE "Habanera"
PERFORMER "Charlotte Church"
INDEX 00 04:27:02
FILE "03 - Habanera.wav" WAVE
INDEX 01 00:00:00
TRACK 04 AUDIO
TITLE "Bali Ha'i"
PERFORMER "Charlotte Church"
INDEX 00 04:27:65
FILE "04 - Bali Ha'i.wav" WAVE
INDEX 01 00:00:00
TRACK 05 AUDIO
TITLE "Papa Can You Hear Me?"
PERFORMER "Charlotte Church"
INDEX 00 04:07:18
FILE "05 - Papa Can You Hear Me.wav" WAVE
INDEX 01 00:00:00
TRACK 06 AUDIO
TITLE "The Flower Duet"
PERFORMER "Charlotte Church"
INDEX 00 02:52:25
FILE "06 - The Flower Duet.wav" WAVE
INDEX 01 00:00:00
TRACK 07 AUDIO
TITLE "The Little Hourse"
PERFORMER "Charlotte Church"
INDEX 00 03:56:17
FILE "07 - The Little Hourse.wav" WAVE
INDEX 01 00:00:00
TRACK 08 AUDIO
TITLE "From My First Moment"
PERFORMER "Charlotte Church"
INDEX 00 02:48:35
FILE "08 - From My First Moment.wav" WAVE
INDEX 01 00:00:00
TRACK 09 AUDIO
TITLE "The Water Is Wide"
PERFORMER "Charlotte Church"
INDEX 00 04:09:05
FILE "09 - The Water Is Wide.wav" WAVE
INDEX 01 00:00:00
TRACK 10 AUDIO
TITLE "Can't Help Lovin' Dat Man"
PERFORMER "Charlotte Church"
INDEX 00 03:09:42
FILE "10 - Can't Help Lovin' Dat Man.wav" WAVE
INDEX 01 00:00:00
TRACK 11 AUDIO
TITLE "The Laughing Song"
PERFORMER "Charlotte Church"
INDEX 00 04:16:45
FILE "11 - The Laughing Song.wav" WAVE
INDEX 01 00:00:00
TRACK 12 AUDIO
TITLE "If I Love You"
PERFORMER "Charlotte Church"
INDEX 00 03:36:07
FILE "12 - If I Love You.wav" WAVE
INDEX 01 00:00:00
TRACK 13 AUDIO
TITLE "A Bit Of Earth"
PERFORMER "Charlotte Church"
INDEX 00 03:34:25
FILE "13 - A Bit Of Earth.wav" WAVE
INDEX 01 00:00:00
TRACK 14 AUDIO
TITLE "Somewhere"
PERFORMER "Charlotte Church"
INDEX 00 03:56:00
FILE "14 - Somewhere.wav" WAVE
INDEX 01 00:00:00
TRACK 15 AUDIO
TITLE "The Prayer"
PERFORMER "Charlotte Church"
INDEX 00 02:47:45
FILE "15 - The Prayer.wav" WAVE
INDEX 01 00:00:00

2002 - Prelude: The Best of Charlotte Church

01 - Pie Jesu (03:25)
02 - My Lagan Love (03:14)
03 - In Trutina [from 'Carmina Burana'] (02:00)
04 - Panis Angelicus (04:09)
05 - Amazing Grace (02:42)
06 - Just Wave Hello (03:52)
07 - La Pastorella (02:27)
08 - She Moved Through The Fair (03:02)
09 - Ave Maria (02:49)
10 - Dream a Dream (03:50)
11 - The Flower Duet [from 'Lakme'] (03:57)
12 - Habaсera [from 'Carmen'] (04:28)
13 - The Prayer [from 'Quest for Camelot'] (04:25)
14 - All Love Can Be [from 'A Beautiful Mind'] (03:16)
15 - It's The Heart That Matters Most (02:21)
16 - Tantum Ergo (03:27)
17 - Bridge Over Troubled Water (04:15)
18 - Sancta Maria [from 'Cavalleria Rusticana'] (03:07)

LOG

Exact Audio Copy V0.99 prebeta 5 from 4. May 2009
EAC extraction logfile from 3. August 2010, 3:11
Charlotte Church / Prelude - The Best of Charlotte Church
Used drive : Optiarc DVD RW AD-7530A Adapter: 1 ID: 0
Read mode : Secure
Utilize accurate stream : Yes
Defeat audio cache : Yes
Make use of C2 pointers : No
Read offset correction : 6
Overread into Lead-In and Lead-Out : No
Fill up missing offset samples with silence : Yes
Delete leading and trailing silent blocks : No
Null samples used in CRC calculations : Yes
Used interface : Native Win32 interface for Win NT & 2000
Gap handling : Appended to previous track
Used output format : User Defined Encoder
Selected bitrate : 128 kBit/s
Quality : High
Add ID3 tag : No
Command line compressor : C:\Program Files\Exact Audio Copy\Flac\flac.exe
Additional command line options : -V -8 -T "artist=%a" -T "title=%t" -T "album=%g" -T "date=%y" -T "tracknumber=%n" -T "genre=%m" %s
TOC of the extracted CD
Track | Start | Length | Start sector | End sector
---------------------------------------------------------
1 | 0:00.00 | 3:25.05 | 0 | 15379
2 | 3:25.05 | 3:14.25 | 15380 | 29954
3 | 6:39.30 | 2:00.32 | 29955 | 38986
4 | 8:39.62 | 4:09.35 | 38987 | 57696
5 | 12:49.22 | 2:42.33 | 57697 | 69879
6 | 15:31.55 | 3:51.45 | 69880 | 87249
7 | 19:23.25 | 2:26.62 | 87250 | 98261
8 | 21:50.12 | 3:01.70 | 98262 | 111906
9 | 24:52.07 | 2:48.50 | 111907 | 124556
10 | 27:40.57 | 3:50.23 | 124557 | 141829
11 | 31:31.05 | 3:56.62 | 141830 | 159591
12 | 35:27.67 | 4:27.43 | 159592 | 179659
13 | 39:55.35 | 4:24.70 | 179660 | 199529
14 | 44:20.30 | 3:16.05 | 199530 | 214234
15 | 47:36.35 | 2:20.47 | 214235 | 224781
16 | 49:57.07 | 3:26.68 | 224782 | 240299
17 | 53:24.00 | 4:15.12 | 240300 | 259436
18 | 57:39.12 | 3:07.33 | 259437 | 273494
Track 1
Filename C:\EAC Rips\Charlotte Church - 2002 - Prelude - The Best of Charlotte Church. [FLAC]\01. Pie Jesu.wav
Pre-gap length 0:00:02.00
Peak level 94.3 %
Track quality 100.0 %
Test CRC 1D476B4C
Copy CRC 1D476B4C
Accurately ripped (confidence 2) [89EED414]
Copy OK
Track 2
Filename C:\EAC Rips\Charlotte Church - 2002 - Prelude - The Best of Charlotte Church. [FLAC]\02. My Lagan Love.wav
Pre-gap length 0:00:01.10
Peak level 78.4 %
Track quality 100.0 %
Test CRC 49902F6E
Copy CRC 49902F6E
Accurately ripped (confidence 2) [0076DE6A]
Copy OK
Track 3
Filename C:\EAC Rips\Charlotte Church - 2002 - Prelude - The Best of Charlotte Church. [FLAC]\03. In Trutina [from 'Carmina Burana'].wav
Pre-gap length 0:00:00.26
Peak level 60.2 %
Track quality 100.0 %
Test CRC 68F519D3
Copy CRC 68F519D3
Accurately ripped (confidence 2) [678E1BA4]
Copy OK
Track 4
Filename C:\EAC Rips\Charlotte Church - 2002 - Prelude - The Best of Charlotte Church. [FLAC]\04. Panis Angelicus.wav
Pre-gap length 0:00:00.22
Peak level 94.7 %
Track quality 100.0 %
Test CRC 878D5DFD
Copy CRC 878D5DFD
Accurately ripped (confidence 2) [4A2BCD2A]
Copy OK
Track 5
Filename C:\EAC Rips\Charlotte Church - 2002 - Prelude - The Best of Charlotte Church. [FLAC]\05. Amazing Grace.wav
Pre-gap length 0:00:01.06
Peak level 98.8 %
Track quality 100.0 %
Test CRC BE286890
Copy CRC BE286890
Accurately ripped (confidence 2) [00D001CE]
Copy OK
Track 6
Filename C:\EAC Rips\Charlotte Church - 2002 - Prelude - The Best of Charlotte Church. [FLAC]\06. Just Wave Hello.wav
Pre-gap length 0:00:00.66
Peak level 98.8 %
Track quality 100.0 %
Test CRC C0EF51E3
Copy CRC C0EF51E3
Accurately ripped (confidence 3) [B4F2105C]
Copy OK
Track 7
Filename C:\EAC Rips\Charlotte Church - 2002 - Prelude - The Best of Charlotte Church. [FLAC]\07. La Pastorella.wav
Peak level 98.3 %
Track quality 100.0 %
Test CRC AD734724
Copy CRC AD734724
Accurately ripped (confidence 2) [CE67B53E]
Copy OK
Track 8
Filename C:\EAC Rips\Charlotte Church - 2002 - Prelude - The Best of Charlotte Church. [FLAC]\08. She Moved Through the Fair.wav
Pre-gap length 0:00:00.62
Peak level 97.7 %
Track quality 99.9 %
Test CRC 2BE8A879
Copy CRC 2BE8A879
Accurately ripped (confidence 2) [7C255B24]
Copy OK
Track 9
Filename C:\EAC Rips\Charlotte Church - 2002 - Prelude - The Best of Charlotte Church. [FLAC]\09. Ave Maria.wav
Pre-gap length 0:00:01.09
Peak level 89.5 %
Track quality 99.9 %
Test CRC 298CB04D
Copy CRC 298CB04D
Accurately ripped (confidence 2) [BD9FA2C0]
Copy OK
Track 10
Filename C:\EAC Rips\Charlotte Church - 2002 - Prelude - The Best of Charlotte Church. [FLAC]\10. Dream a Dream.wav
Pre-gap length 0:00:00.86
Peak level 85.5 %
Track quality 100.0 %
Test CRC CA13CD9E
Copy CRC CA13CD9E
Accurately ripped (confidence 2) [10C34292]
Copy OK
Track 11
Filename C:\EAC Rips\Charlotte Church - 2002 - Prelude - The Best of Charlotte Church. [FLAC]\11. The Flower Duet [from 'Lakmй'].wav
Pre-gap length 0:00:00.53
Peak level 88.1 %
Track quality 100.0 %
Test CRC 85CF8328
Copy CRC 85CF8328
Accurately ripped (confidence 2) [043F1DFB]
Copy OK
Track 12
Filename C:\EAC Rips\Charlotte Church - 2002 - Prelude - The Best of Charlotte Church. [FLAC]\12. Habaсera [from 'Carmen'].wav
Pre-gap length 0:00:01.26
Peak level 94.4 %
Track quality 100.0 %
Test CRC E6C4621B
Copy CRC E6C4621B
Accurately ripped (confidence 2) [5D0C3750]
Copy OK
Track 13
Filename C:\EAC Rips\Charlotte Church - 2002 - Prelude - The Best of Charlotte Church. [FLAC]\13. The Prayer [from 'Quest for Camelot'].wav
Pre-gap length 0:00:00.70
Peak level 96.6 %
Track quality 100.0 %
Test CRC 25402044
Copy CRC 25402044
Accurately ripped (confidence 2) [5012A590]
Copy OK
Track 14
Filename C:\EAC Rips\Charlotte Church - 2002 - Prelude - The Best of Charlotte Church. [FLAC]\14. All Love Can Be [from 'A Beautiful Mind'].wav
Pre-gap length 0:00:01.26
Peak level 98.8 %
Track quality 100.0 %
Test CRC BE953EA2
Copy CRC BE953EA2
Accurately ripped (confidence 2) [D64D8BE6]
Copy OK
Track 15
Filename C:\EAC Rips\Charlotte Church - 2002 - Prelude - The Best of Charlotte Church. [FLAC]\15. It's the Heart That Matters Most.wav
Pre-gap length 0:00:00.26
Peak level 97.7 %
Track quality 100.0 %
Test CRC B8AC7D0E
Copy CRC B8AC7D0E
Accurately ripped (confidence 2) [826A271B]
Copy OK
Track 16
Filename C:\EAC Rips\Charlotte Church - 2002 - Prelude - The Best of Charlotte Church. [FLAC]\16. Tantum Ergo.wav
Pre-gap length 0:00:00.69
Peak level 98.2 %
Track quality 100.0 %
Test CRC A27B9914
Copy CRC A27B9914
Accurately ripped (confidence 2) [EAEE89E4]
Copy OK
Track 17
Filename C:\EAC Rips\Charlotte Church - 2002 - Prelude - The Best of Charlotte Church. [FLAC]\17. Bridge over Troubled Water.wav
Pre-gap length 0:00:00.80
Peak level 98.8 %
Track quality 100.0 %
Test CRC CC4493F8
Copy CRC CC4493F8
Accurately ripped (confidence 2) [F3C200BE]
Copy OK
Track 18
Filename C:\EAC Rips\Charlotte Church - 2002 - Prelude - The Best of Charlotte Church. [FLAC]\18. Sancta Maria [from 'Cavalleria Rusticana'].wav
Pre-gap length 0:00:02.29
Peak level 93.7 %
Track quality 100.0 %
Test CRC FB12CE8E
Copy CRC FB12CE8E
Accurately ripped (confidence 2) [73AB86DD]
Copy OK
All tracks accurately ripped
No errors occurred
End of status report

CUE

REM GENRE Classical
REM DATE 2002
REM DISCID 010E3E12
REM COMMENT "ExactAudioCopy v0.99pb5"
FILE "01 - Pie Jesu.wav" WAVE
TRACK 01 AUDIO
INDEX 01 00:00:00
TRACK 02 AUDIO
INDEX 00 03:23:72
FILE "02 - My Lagan Love.wav" WAVE
INDEX 01 00:00:00
TRACK 03 AUDIO
INDEX 00 03:14:05
FILE "03 - In Trutina [from 'Carmina Burana'].wav" WAVE
INDEX 01 00:00:00
TRACK 04 AUDIO
INDEX 00 02:00:15
FILE "04 - Panis Angelicus.wav" WAVE
INDEX 01 00:00:00
TRACK 05 AUDIO
INDEX 00 04:08:30
FILE "05 - Amazing Grace.wav" WAVE
INDEX 01 00:00:00
TRACK 06 AUDIO
INDEX 00 02:41:58
FILE "06 - Just Wave Hello.wav" WAVE
INDEX 01 00:00:00
FILE "07 - La Pastorella.wav" WAVE
TRACK 07 AUDIO
INDEX 01 00:00:00
TRACK 08 AUDIO
INDEX 00 02:26:15
FILE "08 - She Moved Through The Fair.wav" WAVE
INDEX 01 00:00:00
TRACK 09 AUDIO
INDEX 00 03:00:63
FILE "09 - Ave Maria.wav" WAVE
INDEX 01 00:00:00
TRACK 10 AUDIO
INDEX 00 02:47:60
FILE "10 - Dream a Dream.wav" WAVE
INDEX 01 00:00:00
TRACK 11 AUDIO
INDEX 00 03:49:58
FILE "11 - The Flower Duet [from 'Lakme'].wav" WAVE
INDEX 01 00:00:00
TRACK 12 AUDIO
INDEX 00 03:55:42
FILE "12 - Habaсera [from 'Carmen'].wav" WAVE
INDEX 01 00:00:00
TRACK 13 AUDIO
INDEX 00 04:26:65
FILE "13 - The Prayer [from 'Quest for Camelot'].wav" WAVE
INDEX 01 00:00:00
TRACK 14 AUDIO
INDEX 00 04:23:50
FILE "14 - All Love Can Be [from 'A Beautiful Mind'].wav" WAVE
INDEX 01 00:00:00
TRACK 15 AUDIO
INDEX 00 03:15:60
FILE "15 - It's The Heart That Matters Most.wav" WAVE
INDEX 01 00:00:00
TRACK 16 AUDIO
INDEX 00 02:19:70
FILE "16 - Tantum Ergo.wav" WAVE
INDEX 01 00:00:00
TRACK 17 AUDIO
INDEX 00 03:26:08
FILE "17 - Bridge Over Troubled Water.wav" WAVE
INDEX 01 00:00:00
TRACK 18 AUDIO
INDEX 00 04:12:65
FILE "18 - Sancta Maria [from 'Cavalleria Rusticana'].wav" WAVE
INDEX 01 00:00:00

2005 - Tissues & Issues

01 - Call My Name (03:00)
02 - Crazy Chick (03:09)
03 - Moodswings (To Come at Me Like That) (03:12)
04 - Show a Little Faith (04:39)
05 - Finding My Own Way (04:07)
06 - Let's Be Alone (03:48)
07 - Easy to Forget (04:25)
08 - Fool No More (03:53)
09 - Easy Way Out (04:35)
10 - Casualty of Love (03:55)
11 - Even God (04:10)
12 - Confessional Song (05:07)

LOG

Exact Audio Copy V0.99 prebeta 4 from 23. January 2008
EAC extraction logfile from 2. December 2008, 9:52
Charlotte Church / Tissues & Issues
Used drive : _NEC DVD_RW ND-3550A Adapter: 0 ID: 1
Read mode : Secure
Utilize accurate stream : Yes
Defeat audio cache : Yes
Make use of C2 pointers : No
Read offset correction : 48
Overread into Lead-In and Lead-Out : No
Fill up missing offset samples with silence : Yes
Delete leading and trailing silent blocks : No
Null samples used in CRC calculations : No
Used interface : Native Win32 interface for Win NT & 2000
Gap handling : Appended to previous track
Used output format : User Defined Encoder
Selected bitrate : 320 kBit/s
Quality : High
Add ID3 tag : No
Command line compressor : C:\Program Files\Exact Audio Copy\Flac\flac.exe
Additional command line options : -8 -T "artist=%a" -T "title=%t" -T "album=%g" -T "date=%y" -T "tracknumber=%n" -T "genre=%m" %s
TOC of the extracted CD
Track | Start | Length | Start sector | End sector
---------------------------------------------------------
1 | 0:00.00 | 3:00.06 | 0 | 13505
2 | 3:00.06 | 3:08.63 | 13506 | 27668
3 | 6:08.69 | 3:11.67 | 27669 | 42060
4 | 9:20.61 | 4:38.66 | 42061 | 62976
5 | 13:59.52 | 4:07.08 | 62977 | 81509
6 | 18:06.60 | 3:47.70 | 81510 | 98604
7 | 21:54.55 | 4:25.23 | 98605 | 118502
8 | 26:20.03 | 3:52.72 | 118503 | 135974
9 | 30:13.00 | 4:35.00 | 135975 | 156599
10 | 34:48.00 | 3:55.37 | 156600 | 174261
11 | 38:43.37 | 4:10.25 | 174262 | 193036
12 | 42:53.62 | 5:07.04 | 193037 | 216065
Track 1
Filename C:\Documents and Settings\Karl\Desktop\eac output\Charlotte Church\Tissues & Issues\01 Call My Name.wav
Pre-gap length 0:00:02.00
Peak level 100.0 %
Track quality 100.0 %
Test CRC 345F76FF
Copy CRC 345F76FF
Accurately ripped (confidence 27) [6B59682E]
Copy OK
Track 2
Filename C:\Documents and Settings\Karl\Desktop\eac output\Charlotte Church\Tissues & Issues\02 Crazy Chick.wav
Pre-gap length 0:00:01.14
Peak level 100.0 %
Track quality 100.0 %
Test CRC A193ADC5
Copy CRC A193ADC5
Accurately ripped (confidence 26) [F4A94742]
Copy OK
Track 3
Filename C:\Documents and Settings\Karl\Desktop\eac output\Charlotte Church\Tissues & Issues\03 Moodswings (To Come at Me Like That).wav
Pre-gap length 0:00:01.24
Peak level 100.0 %
Track quality 100.0 %
Test CRC 2A2232B7
Copy CRC 2A2232B7
Accurately ripped (confidence 25) [DF42EC49]
Copy OK
Track 4
Filename C:\Documents and Settings\Karl\Desktop\eac output\Charlotte Church\Tissues & Issues\04 Show a Little Faith.wav
Pre-gap length 0:00:01.51
Peak level 100.0 %
Track quality 100.0 %
Test CRC 8DD6CD67
Copy CRC 8DD6CD67
Accurately ripped (confidence 26) [534A2E4F]
Copy OK
Track 5
Filename C:\Documents and Settings\Karl\Desktop\eac output\Charlotte Church\Tissues & Issues\05 Finding My Own Way.wav
Pre-gap length 0:00:00.21
Peak level 100.0 %
Track quality 100.0 %
Test CRC 52ECF9BE
Copy CRC 52ECF9BE
Accurately ripped (confidence 25) [AC4B2443]
Copy OK
Track 6
Filename C:\Documents and Settings\Karl\Desktop\eac output\Charlotte Church\Tissues & Issues\06 Let's Be Alone.wav
Pre-gap length 0:00:01.51
Peak level 100.0 %
Track quality 100.0 %
Test CRC 3162FEA3
Copy CRC 3162FEA3
Accurately ripped (confidence 26) [ACEDF85D]
Copy OK
Track 7
Filename C:\Documents and Settings\Karl\Desktop\eac output\Charlotte Church\Tissues & Issues\07 Easy to Forget.wav
Pre-gap length 0:00:02.03
Peak level 100.0 %
Track quality 99.9 %
Test CRC 8B399A3E
Copy CRC 8B399A3E
Accurately ripped (confidence 26) [B5200391]
Copy OK
Track 8
Filename C:\Documents and Settings\Karl\Desktop\eac output\Charlotte Church\Tissues & Issues\08 Fool No More.wav
Pre-gap length 0:00:02.18
Peak level 93.5 %
Track quality 100.0 %
Test CRC D788F4A8
Copy CRC D788F4A8
Accurately ripped (confidence 26) [CC1C542B]
Copy OK
Track 9
Filename C:\Documents and Settings\Karl\Desktop\eac output\Charlotte Church\Tissues & Issues\09 Easy Way Out.wav
Pre-gap length 0:00:01.51
Peak level 97.8 %
Track quality 100.0 %
Test CRC DC5F6D9F
Copy CRC DC5F6D9F
Accurately ripped (confidence 26) [F803EA26]
Copy OK
Track 10
Filename C:\Documents and Settings\Karl\Desktop\eac output\Charlotte Church\Tissues & Issues\10 Casualty of Love.wav
Pre-gap length 0:00:00.69
Peak level 100.0 %
Track quality 100.0 %
Test CRC 292E64B6
Copy CRC 292E64B6
Accurately ripped (confidence 26) [DD67240E]
Copy OK
Track 11
Filename C:\Documents and Settings\Karl\Desktop\eac output\Charlotte Church\Tissues & Issues\11 Even God.wav
Pre-gap length 0:00:01.21
Peak level 93.9 %
Track quality 100.0 %
Test CRC A4223CF6
Copy CRC A4223CF6
Accurately ripped (confidence 26) [C5F3D6FE]
Copy OK
Track 12
Filename C:\Documents and Settings\Karl\Desktop\eac output\Charlotte Church\Tissues & Issues\12 Confessional Song.wav
Pre-gap length 0:00:01.51
Peak level 99.8 %
Track quality 100.0 %
Test CRC 6B67E8CD
Copy CRC 6B67E8CD
Accurately ripped (confidence 26) [E89A9B9B]
Copy OK
All tracks accurately ripped
No errors occurred
End of status report

CUE

REM GENRE Classical
REM DATE 2005
REM DISCID 960B400C
REM COMMENT "ExactAudioCopy v0.99pb4"
PERFORMER "Charlotte Church"
TITLE "Tissues & Issues"
FILE "01 - Call My Name.wav" WAVE
TRACK 01 AUDIO
TITLE "Call My Name"
PERFORMER "Charlotte Church"
INDEX 01 00:00:00
TRACK 02 AUDIO
TITLE "Crazy Chick"
PERFORMER "Charlotte Church"
INDEX 00 02:58:67
FILE "02 - Crazy Chick.wav" WAVE
INDEX 01 00:00:00
TRACK 03 AUDIO
TITLE "Moodswings (To Come at Me Like That)"
PERFORMER "Charlotte Church"
INDEX 00 03:07:39
FILE "03 - Moodswings (To Come at Me Like That).wav" WAVE
INDEX 01 00:00:00
TRACK 04 AUDIO
TITLE "Show a Little Faith"
PERFORMER "Charlotte Church"
INDEX 00 03:10:16
FILE "04 - Show a Little Faith.wav" WAVE
INDEX 01 00:00:00
TRACK 05 AUDIO
TITLE "Finding My Own Way"
PERFORMER "Charlotte Church"
INDEX 00 04:38:45
FILE "05 - Finding My Own Way.wav" WAVE
INDEX 01 00:00:00
TRACK 06 AUDIO
TITLE "Let's Be Alone"
PERFORMER "Charlotte Church"
INDEX 00 04:05:32
FILE "06 - Let's Be Alone.wav" WAVE
INDEX 01 00:00:00
TRACK 07 AUDIO
TITLE "Easy to Forget"
PERFORMER "Charlotte Church"
INDEX 00 03:45:67
FILE "07 - Easy to Forget.wav" WAVE
INDEX 01 00:00:00
TRACK 08 AUDIO
TITLE "Fool No More"
PERFORMER "Charlotte Church"
INDEX 00 04:23:05
FILE "08 - Fool No More.wav" WAVE
INDEX 01 00:00:00
TRACK 09 AUDIO
TITLE "Easy Way Out"
PERFORMER "Charlotte Church"
INDEX 00 03:51:21
FILE "09 - Easy Way Out.wav" WAVE
INDEX 01 00:00:00
TRACK 10 AUDIO
TITLE "Casualty of Love"
PERFORMER "Charlotte Church"
INDEX 00 04:34:06
FILE "10 - Casualty of Love.wav" WAVE
INDEX 01 00:00:00
TRACK 11 AUDIO
TITLE "Even God"
PERFORMER "Charlotte Church"
INDEX 00 03:54:16
FILE "11 - Even God.wav" WAVE
INDEX 01 00:00:00
TRACK 12 AUDIO
TITLE "Confessional Song"
PERFORMER "Charlotte Church"
INDEX 00 04:08:49
FILE "12 - Confessional Song.wav" WAVE
INDEX 01 00:00:00

2010 - Back to Scratch

01 - Back To Scratch (03:35)
02 - We Were Young (03:09)
03 - Ruby (02:16)
04 - Unravelling (03:46)
05 - Logical World (02:52)
06 - Suitcase (03:04)
07 - The Actors (03:30)
08 - The Story Of Us (03:51)
09 - Don't Think About It (02:52)
10 - Cup Of The Sun (01:48)
11 - Snow (05:02)
12 - Lovedrunk (03:21)
13 - Honestly (08:35)

LOG

Exact Audio Copy V1.0 beta 1 from 15. November 2010
EAC extraction logfile from 16. February 2011, 9:33
Charlotte Church / Back to Scratch
Used drive : ASUS DRW-24B1LT Adapter: 0 ID: 1
Read mode : Secure
Utilize accurate stream : Yes
Defeat audio cache : Yes
Make use of C2 pointers : No
Read offset correction : 6
Overread into Lead-In and Lead-Out : No
Fill up missing offset samples with silence : Yes
Delete leading and trailing silent blocks : No
Null samples used in CRC calculations : Yes
Used interface : Native Win32 interface for Win NT & 2000
Gap handling : Appended to previous track
Used output format : User Defined Encoder
Selected bitrate : 768 kBit/s
Quality : High
Add ID3 tag : No
Command line compressor : F:\Exact Audio Copy\FLAC\flac.exe
Additional command line options : -V -8 -T "artist=%a" -T "title=%t" -T "album=%g" -T "date=%y" -T "tracknumber=%n" -T "genre=%m" %s
TOC of the extracted CD
Track | Start | Length | Start sector | End sector
---------------------------------------------------------
1 | 0:00.00 | 3:34.48 | 0 | 16097
2 | 3:34.48 | 3:08.55 | 16098 | 30252
3 | 6:43.28 | 2:15.70 | 30253 | 40447
4 | 8:59.23 | 3:45.58 | 40448 | 57380
5 | 12:45.06 | 2:51.39 | 57381 | 70244
6 | 15:36.45 | 3:04.33 | 70245 | 84077
7 | 18:41.03 | 3:29.41 | 84078 | 99793
8 | 22:10.44 | 3:51.29 | 99794 | 117147
9 | 26:01.73 | 2:52.16 | 117148 | 130063
10 | 28:54.14 | 1:47.67 | 130064 | 138155
11 | 30:42.06 | 5:02.24 | 138156 | 160829
12 | 35:44.30 | 3:20.53 | 160830 | 175882
13 | 39:05.08 | 8:35.05 | 175883 | 214512
Track 1
Filename G:\uploads\Charlotte Church - 2010 - Back to Scratch\01 - Back To Scratch .wav
Pre-gap length 0:00:02.00
Peak level 98.0 %
Extraction speed 3.5 X
Track quality 100.0 %
Test CRC 92E60800
Copy CRC 92E60800
Accurately ripped (confidence 2) [30A6AD75]
Copy OK
Track 2
Filename G:\uploads\Charlotte Church - 2010 - Back to Scratch\02 - We Were Young .wav
Pre-gap length 0:00:00.04
Peak level 98.0 %
Extraction speed 3.7 X
Track quality 100.0 %
Test CRC 539C4A32
Copy CRC 539C4A32
Accurately ripped (confidence 2) [9102B62B]
Copy OK
Track 3
Filename G:\uploads\Charlotte Church - 2010 - Back to Scratch\03 - Ruby .wav
Pre-gap length 0:00:00.08
Peak level 98.0 %
Extraction speed 3.6 X
Track quality 100.0 %
Test CRC D7F38110
Copy CRC D7F38110
Accurately ripped (confidence 2) [DAB83812]
Copy OK
Track 4
Filename G:\uploads\Charlotte Church - 2010 - Back to Scratch\04 - Unravelling .wav
Peak level 98.0 %
Extraction speed 3.4 X
Track quality 99.9 %
Test CRC C2CBDC42
Copy CRC C2CBDC42
Accurately ripped (confidence 2) [A32B9254]
Copy OK
Track 5
Filename G:\uploads\Charlotte Church - 2010 - Back to Scratch\05 - Logical World .wav
Peak level 98.0 %
Extraction speed 4.4 X
Track quality 100.0 %
Test CRC 6EE21571
Copy CRC 6EE21571
Accurately ripped (confidence 2) [DADD2F28]
Copy OK
Track 6
Filename G:\uploads\Charlotte Church - 2010 - Back to Scratch\06 - Suitcase .wav
Pre-gap length 0:00:00.80
Peak level 98.0 %
Extraction speed 4.6 X
Track quality 100.0 %
Test CRC C4E5FE61
Copy CRC C4E5FE61
Accurately ripped (confidence 2) [27D58BF1]
Copy OK
Track 7
Filename G:\uploads\Charlotte Church - 2010 - Back to Scratch\07 - The Actors .wav
Pre-gap length 0:00:00.80
Peak level 98.0 %
Extraction speed 3.9 X
Track quality 99.9 %
Test CRC 52C4C3D5
Copy CRC 52C4C3D5
Accurately ripped (confidence 2) [BB43C54F]
Copy OK
Track 8
Filename G:\uploads\Charlotte Church - 2010 - Back to Scratch\08 - The Story Of Us .wav
Pre-gap length 0:00:01.28
Peak level 98.0 %
Extraction speed 5.3 X
Track quality 100.0 %
Test CRC 30BFFEEC
Copy CRC 30BFFEEC
Accurately ripped (confidence 2) [4BB4A888]
Copy OK
Track 9
Filename G:\uploads\Charlotte Church - 2010 - Back to Scratch\09 - Don't Think About It .wav
Pre-gap length 0:00:00.22
Peak level 98.0 %
Extraction speed 5.3 X
Track quality 100.0 %
Test CRC F05F6598
Copy CRC F05F6598
Accurately ripped (confidence 2) [550F5483]
Copy OK
Track 10
Filename G:\uploads\Charlotte Church - 2010 - Back to Scratch\10 - Cup Of The Sun .wav
Pre-gap length 0:00:01.24
Peak level 87.4 %
Extraction speed 3.2 X
Track quality 99.9 %
Test CRC 67E199C4
Copy CRC 67E199C4
Accurately ripped (confidence 2) [6660FE85]
Copy OK
Track 11
Filename G:\uploads\Charlotte Church - 2010 - Back to Scratch\11 - Snow .wav
Pre-gap length 0:00:00.46
Peak level 98.0 %
Extraction speed 6.1 X
Track quality 100.0 %
Test CRC D1B5B6A9
Copy CRC D1B5B6A9
Accurately ripped (confidence 2) [515C3796]
Copy OK
Track 12
Filename G:\uploads\Charlotte Church - 2010 - Back to Scratch\12 - Lovedrunk .wav
Pre-gap length 0:00:00.06
Peak level 87.4 %
Extraction speed 6.0 X
Track quality 100.0 %
Test CRC 56FE775A
Copy CRC 56FE775A
Accurately ripped (confidence 2) [D1C9D5A3]
Copy OK
Track 13
Filename G:\uploads\Charlotte Church - 2010 - Back to Scratch\13 - Honestly .wav
Pre-gap length 0:00:00.94
Peak level 98.0 %
Extraction speed 6.2 X
Track quality 99.9 %
Test CRC 20580950
Copy CRC 20580950
Accurately ripped (confidence 2) [A9CE214F]
Copy OK
All tracks accurately ripped
No errors occurred
End of status report
==== Log checksum 0DFA5D9920359F7CCBCA2F9B08735E9030F560F4F5DDD659A5DFCBABFA3C27B8 ====

CUE

REM GENRE Classical
REM DATE 2010
REM DISCID A40B2C0D
REM COMMENT "ExactAudioCopy v1.0b1"
PERFORMER "Charlotte Church"
TITLE "Back to Scratch"
FILE "01 - Back To Scratch.wav" WAVE
TRACK 01 AUDIO
TITLE "Back To Scratch"
PERFORMER "Charlotte Church"
INDEX 01 00:00:00
TRACK 02 AUDIO
TITLE "We Were Young"
PERFORMER "Charlotte Church"
INDEX 00 03:34:45
FILE "02 - We Were Young.wav" WAVE
INDEX 01 00:00:00
TRACK 03 AUDIO
TITLE "Ruby"
PERFORMER "Charlotte Church"
INDEX 00 03:08:49
FILE "03 - Ruby.wav" WAVE
INDEX 01 00:00:00
FILE "04 - Unravelling.wav" WAVE
TRACK 04 AUDIO
TITLE "Unravelling"
PERFORMER "Charlotte Church"
INDEX 01 00:00:00
FILE "05 - Logical World.wav" WAVE
TRACK 05 AUDIO
TITLE "Logical World"
PERFORMER "Charlotte Church"
INDEX 01 00:00:00
TRACK 06 AUDIO
TITLE "Suitcase"
PERFORMER "Charlotte Church"
INDEX 00 02:50:54
FILE "06 - Suitcase.wav" WAVE
INDEX 01 00:00:00
TRACK 07 AUDIO
TITLE "The Actors"
PERFORMER "Charlotte Church"
INDEX 00 03:03:48
FILE "07 - The Actors.wav" WAVE
INDEX 01 00:00:00
TRACK 08 AUDIO
TITLE "The Story Of Us"
PERFORMER "Charlotte Church"
INDEX 00 03:28:20
FILE "08 - The Story Of Us.wav" WAVE
INDEX 01 00:00:00
TRACK 09 AUDIO
TITLE "Don't Think About It"
PERFORMER "Charlotte Church"
INDEX 00 03:51:12
FILE "09 - Don't Think About It.wav" WAVE
INDEX 01 00:00:00
TRACK 10 AUDIO
TITLE "Cup Of The Sun"
PERFORMER "Charlotte Church"
INDEX 00 02:50:73
FILE "10 - Cup Of The Sun.wav" WAVE
INDEX 01 00:00:00
TRACK 11 AUDIO
TITLE "Snow"
PERFORMER "Charlotte Church"
INDEX 00 01:47:32
FILE "11 - Snow.wav" WAVE
INDEX 01 00:00:00
TRACK 12 AUDIO
TITLE "Lovedrunk"
PERFORMER "Charlotte Church"
INDEX 00 05:02:19
FILE "12 - Lovedrunk.wav" WAVE
INDEX 01 00:00:00
TRACK 13 AUDIO
TITLE "Honestly"
PERFORMER "Charlotte Church"
INDEX 00 03:19:57
FILE "13 - Honestly.wav" WAVE
INDEX 01 00:00:00
-MP3 Discography-



Показать сообщения:    

Текущее время: 08-Дек 21:06

Часовой пояс: UTC + 3


Вы не можете начинать темы
Вы не можете отвечать на сообщения
Вы не можете редактировать свои сообщения
Вы не можете удалять свои сообщения
Вы не можете голосовать в опросах
Вы не можете прикреплять файлы к сообщениям
Вы не можете скачивать файлы