(Classical / Drums) Vadrum - Classical Drumming - 2011 [FLAC (tracks+.cue) lossless]


 

[Цитировать]

Vadrum - Classical Drumming- Жанр: Classical / Drums
Год выпуска диска: 2011
Производитель диска: Italy
Аудио кодек: FLAC
Тип рипа: tracks+.cue
Битрейт аудио: lossless
Продолжительность: 00:55:23
-01 - William Tell (03:16)
02 - The Barber of Seville (03:30)
03 - Russian Dance (01:23)
04 - Dance of the Hours (03:38)
05 - Flight of the Bumblebee (01:24)
06 - Spring (03:12)
07 - Infernal Galop (02:43)
08 - Tritsch Tratsch Polka (02:34)
09 - Waltz of the Flowers (04:58)
10 - Tarantelle (La Danza) (02:21)
11 - Eine kleine Nachtmusik (03:17)
12 - Les Toréadors (02:06)
13 - Pizzicati (02:03)
14 - Hungarian Dance (02:21)
15 - Symphony n°5 (02:49)
16 - Nabucco (03:07)
17 - Radetzky March (02:47)
18 - The Marriage of the Figaro (03:53)
19 - Badinerie (01:22)
20 - Summer (02:42)
-Источник: what.cd

LOG

Exact Audio Copy V0.99 prebeta 5 from 4. May 2009
EAC extraction logfile from 7. February 2011, 19:26
Vadrum / Classical Drumming
Used drive : HL-DT-STDVD-ROM GDR8164B Adapter: 0 ID: 1
Read mode : Secure
Utilize accurate stream : Yes
Defeat audio cache : Yes
Make use of C2 pointers : No
Read offset correction : 102
Overread into Lead-In and Lead-Out : No
Fill up missing offset samples with silence : Yes
Delete leading and trailing silent blocks : No
Null samples used in CRC calculations : Yes
Used interface : Native Win32 interface for Win NT & 2000
Gap handling : Appended to previous track
Used output format : User Defined Encoder
Selected bitrate : 1024 kBit/s
Quality : High
Add ID3 tag : No
Command line compressor : C:\Program Files\Exact Audio Copy\FLAC\FLAC.EXE
Additional command line options : -8 -V -T "ARTIST=%a" -T "TITLE=%t" -T "ALBUM=%g" -T "DATE=%y" -T "TRACKNUMBER=%n" -T "GENRE=%m" -T "COMMENT=%e" %s -o %d
TOC of the extracted CD
Track | Start | Length | Start sector | End sector
---------------------------------------------------------
1 | 0:00.00 | 3:15.39 | 0 | 14663
2 | 3:15.39 | 3:29.54 | 14664 | 30392
3 | 6:45.18 | 1:22.71 | 30393 | 36613
4 | 8:08.14 | 3:37.60 | 36614 | 52948
5 | 11:45.74 | 1:23.51 | 52949 | 59224
6 | 13:09.50 | 3:12.26 | 59225 | 73650
7 | 16:22.01 | 2:43.27 | 73651 | 85902
8 | 19:05.28 | 2:34.01 | 85903 | 97453
9 | 21:39.29 | 4:58.14 | 97454 | 119817
10 | 26:37.43 | 2:20.40 | 119818 | 130357
11 | 28:58.08 | 3:17.01 | 130358 | 145133
12 | 32:15.09 | 2:05.59 | 145134 | 154567
13 | 34:20.68 | 2:02.60 | 154568 | 163777
14 | 36:23.53 | 2:20.48 | 163778 | 174325
15 | 38:44.26 | 2:48.59 | 174326 | 186984
16 | 41:33.10 | 3:07.21 | 186985 | 201030
17 | 44:40.31 | 2:46.49 | 201031 | 213529
18 | 47:27.05 | 3:52.65 | 213530 | 230994
19 | 51:19.70 | 1:21.48 | 230995 | 237117
20 | 52:41.43 | 2:42.14 | 237118 | 249281
Track 1
Filename M:\Media\Ripped\Vadrum\Classical Drumming\01 William Tell.wav
Pre-gap length 0:00:02.00
Peak level 99.9 %
Track quality 100.0 %
Test CRC 4D7F46F7
Copy CRC 4D7F46F7
Track not present in AccurateRip database
Copy OK
Track 2
Filename M:\Media\Ripped\Vadrum\Classical Drumming\02 The Barber of Seville.wav
Peak level 99.9 %
Track quality 100.0 %
Test CRC CDCFC289
Copy CRC CDCFC289
Track not present in AccurateRip database
Copy OK
Track 3
Filename M:\Media\Ripped\Vadrum\Classical Drumming\03 Russian Dance.wav
Peak level 99.8 %
Track quality 100.0 %
Test CRC B7B18697
Copy CRC B7B18697
Track not present in AccurateRip database
Copy OK
Track 4
Filename M:\Media\Ripped\Vadrum\Classical Drumming\04 Dance of the Hours.wav
Peak level 99.9 %
Track quality 99.9 %
Test CRC 886DD079
Copy CRC 886DD079
Track not present in AccurateRip database
Copy OK
Track 5
Filename M:\Media\Ripped\Vadrum\Classical Drumming\05 Flight of the Bumblebee.wav
Peak level 98.2 %
Track quality 99.8 %
Test CRC 76F7BA2E
Copy CRC 76F7BA2E
Track not present in AccurateRip database
Copy OK
Track 6
Filename M:\Media\Ripped\Vadrum\Classical Drumming\06 Spring.wav
Peak level 99.9 %
Track quality 100.0 %
Test CRC 1574D922
Copy CRC 1574D922
Track not present in AccurateRip database
Copy OK
Track 7
Filename M:\Media\Ripped\Vadrum\Classical Drumming\07 Infernal Galop.wav
Peak level 99.9 %
Track quality 99.9 %
Test CRC 26D0E43C
Copy CRC 26D0E43C
Track not present in AccurateRip database
Copy OK
Track 8
Filename M:\Media\Ripped\Vadrum\Classical Drumming\08 Tritsch Tratsch Polka.wav
Peak level 99.9 %
Track quality 100.0 %
Test CRC C9C1E114
Copy CRC C9C1E114
Track not present in AccurateRip database
Copy OK
Track 9
Filename M:\Media\Ripped\Vadrum\Classical Drumming\09 Waltz of the Flowers.wav
Peak level 99.8 %
Track quality 99.9 %
Test CRC D7F100A3
Copy CRC D7F100A3
Track not present in AccurateRip database
Copy OK
Track 10
Filename M:\Media\Ripped\Vadrum\Classical Drumming\10 Tarantelle (La Danza).wav
Peak level 99.9 %
Track quality 100.0 %
Test CRC A5C19A3B
Copy CRC A5C19A3B
Track not present in AccurateRip database
Copy OK
Track 11
Filename M:\Media\Ripped\Vadrum\Classical Drumming\11 Eine kleine Nachtmusik.wav
Peak level 99.9 %
Track quality 100.0 %
Test CRC 36060D3F
Copy CRC 36060D3F
Track not present in AccurateRip database
Copy OK
Track 12
Filename M:\Media\Ripped\Vadrum\Classical Drumming\12 Les Torйadors.wav
Peak level 99.9 %
Track quality 100.0 %
Test CRC D8F2E40C
Copy CRC D8F2E40C
Track not present in AccurateRip database
Copy OK
Track 13
Filename M:\Media\Ripped\Vadrum\Classical Drumming\13 Pizzicati.wav
Peak level 99.8 %
Track quality 100.0 %
Test CRC 3110A9CD
Copy CRC 3110A9CD
Track not present in AccurateRip database
Copy OK
Track 14
Filename M:\Media\Ripped\Vadrum\Classical Drumming\14 Hungarian Dance.wav
Peak level 99.9 %
Track quality 100.0 %
Test CRC C0361CC6
Copy CRC C0361CC6
Track not present in AccurateRip database
Copy OK
Track 15
Filename M:\Media\Ripped\Vadrum\Classical Drumming\15 Symphony n°5.wav
Peak level 99.9 %
Track quality 100.0 %
Test CRC 6C6A61A7
Copy CRC 6C6A61A7
Track not present in AccurateRip database
Copy OK
Track 16
Filename M:\Media\Ripped\Vadrum\Classical Drumming\16 Nabucco.wav
Peak level 99.9 %
Track quality 99.9 %
Test CRC DFF4F178
Copy CRC DFF4F178
Track not present in AccurateRip database
Copy OK
Track 17
Filename M:\Media\Ripped\Vadrum\Classical Drumming\17 Radetzky March.wav
Peak level 99.8 %
Track quality 100.0 %
Test CRC 734AF7C6
Copy CRC 734AF7C6
Track not present in AccurateRip database
Copy OK
Track 18
Filename M:\Media\Ripped\Vadrum\Classical Drumming\18 The Marriage of the Figaro.wav
Peak level 99.9 %
Track quality 100.0 %
Test CRC E141F9C3
Copy CRC E141F9C3
Track not present in AccurateRip database
Copy OK
Track 19
Filename M:\Media\Ripped\Vadrum\Classical Drumming\19 Badinerie.wav
Peak level 99.9 %
Track quality 100.0 %
Test CRC 8A3E1994
Copy CRC 8A3E1994
Track not present in AccurateRip database
Copy OK
Track 20
Filename M:\Media\Ripped\Vadrum\Classical Drumming\20 Summer.wav
Peak level 99.8 %
Track quality 100.0 %
Test CRC 9BF2C353
Copy CRC 9BF2C353
Track not present in AccurateRip database
Copy OK
None of the tracks are present in the AccurateRip database
No errors occurred
End of status report

CUE

REM GENRE Classical
REM DATE 2011
REM DISCID 270CFB14
REM COMMENT "ExactAudioCopy v0.99pb5"
PERFORMER "Vadrum"
TITLE "Classical Drumming"
FILE "01 William Tell.wav" WAVE
TRACK 01 AUDIO
TITLE "William Tell"
PERFORMER "Vadrum"
ISRC ITBD51100001
INDEX 01 00:00:00
FILE "02 The Barber of Seville.wav" WAVE
TRACK 02 AUDIO
TITLE "The Barber of Seville"
PERFORMER "Vadrum"
ISRC ITBD51100002
INDEX 01 00:00:00
FILE "03 Russian Dance.wav" WAVE
TRACK 03 AUDIO
TITLE "Russian Dance"
PERFORMER "Vadrum"
ISRC ITBD51100003
INDEX 01 00:00:00
FILE "04 Dance of the Hours.wav" WAVE
TRACK 04 AUDIO
TITLE "Dance of the Hours"
PERFORMER "Vadrum"
ISRC ITBD51100004
INDEX 01 00:00:00
FILE "05 Flight of the Bumblebee.wav" WAVE
TRACK 05 AUDIO
TITLE "Flight of the Bumblebee"
PERFORMER "Vadrum"
ISRC ITBD51100005
INDEX 01 00:00:00
FILE "06 Spring.wav" WAVE
TRACK 06 AUDIO
TITLE "Spring"
PERFORMER "Vadrum"
ISRC ITBD51100006
INDEX 01 00:00:00
FILE "07 Infernal Galop.wav" WAVE
TRACK 07 AUDIO
TITLE "Infernal Galop"
PERFORMER "Vadrum"
ISRC ITBD51100007
INDEX 01 00:00:00
FILE "08 Tritsch Tratsch Polka.wav" WAVE
TRACK 08 AUDIO
TITLE "Tritsch Tratsch Polka"
PERFORMER "Vadrum"
ISRC ITBD51100008
INDEX 01 00:00:00
FILE "09 Waltz of the Flowers.wav" WAVE
TRACK 09 AUDIO
TITLE "Waltz of the Flowers"
PERFORMER "Vadrum"
ISRC ITBD51100009
INDEX 01 00:00:00
FILE "10 Tarantelle (La Danza).wav" WAVE
TRACK 10 AUDIO
TITLE "Tarantelle (La Danza)"
PERFORMER "Vadrum"
ISRC ITBD51100010
INDEX 01 00:00:00
FILE "11 Eine kleine Nachtmusik.wav" WAVE
TRACK 11 AUDIO
TITLE "Eine kleine Nachtmusik"
PERFORMER "Vadrum"
ISRC ITBD51100011
INDEX 01 00:00:00
FILE "12 Les Toreadors.wav" WAVE
TRACK 12 AUDIO
TITLE "Les Toreadors"
PERFORMER "Vadrum"
ISRC ITBD51100012
INDEX 01 00:00:00
FILE "13 Pizzicati.wav" WAVE
TRACK 13 AUDIO
TITLE "Pizzicati"
PERFORMER "Vadrum"
ISRC ITBD51100013
INDEX 01 00:00:00
FILE "14 Hungarian Dance.wav" WAVE
TRACK 14 AUDIO
TITLE "Hungarian Dance"
PERFORMER "Vadrum"
ISRC ITBD51100014
INDEX 01 00:00:00
FILE "15 Symphony n°5.wav" WAVE
TRACK 15 AUDIO
TITLE "Symphony n°5"
PERFORMER "Vadrum"
ISRC ITBD51100015
INDEX 01 00:00:00
FILE "16 Nabucco.wav" WAVE
TRACK 16 AUDIO
TITLE "Nabucco"
PERFORMER "Vadrum"
ISRC ITBD51100016
INDEX 01 00:00:00
FILE "17 Radetzky March.wav" WAVE
TRACK 17 AUDIO
TITLE "Radetzky March"
PERFORMER "Vadrum"
ISRC ITBD51100017
INDEX 01 00:00:00
FILE "18 The Marriage of the Figaro.wav" WAVE
TRACK 18 AUDIO
TITLE "The Marriage of the Figaro"
PERFORMER "Vadrum"
ISRC ITBD51100018
INDEX 01 00:00:00
FILE "19 Badinerie.wav" WAVE
TRACK 19 AUDIO
TITLE "Badinerie"
PERFORMER "Vadrum"
ISRC ITBD51100019
INDEX 01 00:00:00
FILE "20 Summer.wav" WAVE
TRACK 20 AUDIO
TITLE "Summer"
PERFORMER "Vadrum"
ISRC ITBD51100020
INDEX 01 00:00:00
-



Показать сообщения:    

Текущее время: 03-Дек 03:24

Часовой пояс: UTC + 3


Вы не можете начинать темы
Вы не можете отвечать на сообщения
Вы не можете редактировать свои сообщения
Вы не можете удалять свои сообщения
Вы не можете голосовать в опросах
Вы не можете прикреплять файлы к сообщениям
Вы не можете скачивать файлы