(Classical / Vocal) Katherine Jenkins (7 Releases) 2005-2011 [FLAC (tracks+.cue) lossless]


 

[Цитировать]

Katherine Jenkins- -Жанр: Classical / Vocal || Страна: UK || Аудио кодек: FLAC || Тип рипа: tracks+.cue || Битрейт аудио: lossless || Источник: what.cd-Albums:

2005 - La Diva

01 - Time To Say Goodbye (03:45)
02 - Caruso (03:53)
03 - Va Pensiero (03:47)
04 - House Of No Regrets (03:30)
05 - O Sole Mio (03:19)
06 - En Aranjuez Con Tu Amor (04:08)
07 - Seguedilla (02:07)
08 - Song To The Moon (05:39)
09 - Calon Lan (02:28)
10 - Hymn To The Fallen (04:31)
11 - Laudate Dominum (03:56)
12 - You'll Never Walk Alone (02:16)
Продолжительность: 00:43:18

LOG

Exact Audio Copy V0.99 prebeta 5 from 4. May 2009
EAC extraction logfile from 15. January 2010, 20:20
Katherine Jenkins / La Diva
Used drive : ATAPI BD O DH4O1S Adapter: 1 ID: 1
Read mode : Secure
Utilize accurate stream : Yes
Defeat audio cache : Yes
Make use of C2 pointers : No
Read offset correction : 6
Overread into Lead-In and Lead-Out : No
Fill up missing offset samples with silence : Yes
Delete leading and trailing silent blocks : No
Null samples used in CRC calculations : Yes
Used interface : Native Win32 interface for Win NT & 2000
Gap handling : Appended to previous track
Used output format : User Defined Encoder
Selected bitrate : 768 kBit/s
Quality : High
Add ID3 tag : No
Command line compressor : C:\Program Files\Exact Audio Copy\Flac\flac.exe
Additional command line options : -V -8 -T "artist=%a" -T "title=%t" -T "album=%g" -T "date=%y" -T "tracknumber=%n" -T "genre=%m" %s
TOC of the extracted CD
Track | Start | Length | Start sector | End sector
---------------------------------------------------------
1 | 0:00.00 | 3:45.34 | 0 | 16908
2 | 3:45.34 | 3:52.66 | 16909 | 34374
3 | 7:38.25 | 3:47.11 | 34375 | 51410
4 | 11:25.36 | 3:29.61 | 51411 | 67146
5 | 14:55.22 | 3:19.22 | 67147 | 82093
6 | 18:14.44 | 4:08.30 | 82094 | 100723
7 | 22:22.74 | 2:06.47 | 100724 | 110220
8 | 24:29.46 | 5:38.60 | 110221 | 135630
9 | 30:08.31 | 2:27.38 | 135631 | 146693
10 | 32:35.69 | 4:30.64 | 146694 | 167007
11 | 37:06.58 | 3:55.56 | 167008 | 184688
12 | 41:02.39 | 2:16.00 | 184689 | 194888
Track 1
Filename Q:\EAC\Katherine Jenkins - 2005 - La Diva\01 - Time To Say Goodbye.wav
Pre-gap length 0:00:02.00
Peak level 98.8 %
Track quality 99.9 %
Test CRC 306CE6B1
Copy CRC 306CE6B1
Accurately ripped (confidence 1) [6BB34198]
Copy OK
Track 2
Filename Q:\EAC\Katherine Jenkins - 2005 - La Diva\02 - Caruso.wav
Peak level 98.8 %
Track quality 100.0 %
Test CRC 63BA148D
Copy CRC 63BA148D
Accurately ripped (confidence 1) [2BD0AA71]
Copy OK
Track 3
Filename Q:\EAC\Katherine Jenkins - 2005 - La Diva\03 - Va Pensiero.wav
Peak level 98.8 %
Track quality 99.9 %
Test CRC E7ACAA9A
Copy CRC E7ACAA9A
Accurately ripped (confidence 1) [1EE1FCEA]
Copy OK
Track 4
Filename Q:\EAC\Katherine Jenkins - 2005 - La Diva\04 - House Of No Regrets.wav
Peak level 98.8 %
Track quality 100.0 %
Test CRC DE788CE1
Copy CRC DE788CE1
Accurately ripped (confidence 1) [AF7EF780]
Copy OK
Track 5
Filename Q:\EAC\Katherine Jenkins - 2005 - La Diva\05 - O Sole Mio.wav
Peak level 98.8 %
Track quality 100.0 %
Test CRC 680C8FAA
Copy CRC 680C8FAA
Accurately ripped (confidence 1) [B60CB9D1]
Copy OK
Track 6
Filename Q:\EAC\Katherine Jenkins - 2005 - La Diva\06 - En Aranjuez Con Tu Amor.wav
Peak level 98.8 %
Track quality 99.9 %
Test CRC 3A601F11
Copy CRC 3A601F11
Accurately ripped (confidence 1) [EE69EDCB]
Copy OK
Track 7
Filename Q:\EAC\Katherine Jenkins - 2005 - La Diva\07 - Seguedilla.wav
Peak level 98.8 %
Track quality 100.0 %
Test CRC 766F2070
Copy CRC 766F2070
Accurately ripped (confidence 1) [C4299839]
Copy OK
Track 8
Filename Q:\EAC\Katherine Jenkins - 2005 - La Diva\08 - Song To The Moon.wav
Peak level 98.8 %
Track quality 100.0 %
Test CRC 8C1BBAE3
Copy CRC 8C1BBAE3
Accurately ripped (confidence 1) [B4122442]
Copy OK
Track 9
Filename Q:\EAC\Katherine Jenkins - 2005 - La Diva\09 - Calon Lan.wav
Peak level 98.8 %
Track quality 100.0 %
Test CRC ABDCAD95
Copy CRC ABDCAD95
Accurately ripped (confidence 1) [B70319CE]
Copy OK
Track 10
Filename Q:\EAC\Katherine Jenkins - 2005 - La Diva\10 - Hymn To The Fallen.wav
Peak level 98.8 %
Track quality 100.0 %
Test CRC 598AC01F
Copy CRC 598AC01F
Accurately ripped (confidence 1) [57EFF04A]
Copy OK
Track 11
Filename Q:\EAC\Katherine Jenkins - 2005 - La Diva\11 - Laudate Dominum.wav
Peak level 98.8 %
Track quality 99.9 %
Test CRC BEE1095D
Copy CRC BEE1095D
Accurately ripped (confidence 1) [7AAEE1BA]
Copy OK
Track 12
Filename Q:\EAC\Katherine Jenkins - 2005 - La Diva\12 - You'll Never Walk Alone.wav
Peak level 98.8 %
Track quality 100.0 %
Test CRC A42721A9
Copy CRC A42721A9
Accurately ripped (confidence 1) [6699F0AE]
Copy OK
All tracks accurately ripped
No errors occurred
End of status report

CUE

REM GENRE Classical
REM DATE 2005
REM DISCID AB0A260C
REM COMMENT "ExactAudioCopy v0.99pb5"
PERFORMER "Katherine Jenkins"
TITLE "La Diva"
FILE "01 - Time To Say Goodbye.wav" WAVE
TRACK 01 AUDIO
TITLE "Time To Say Goodbye"
PERFORMER "Katherine Jenkins"
INDEX 01 00:00:00
FILE "02 - Caruso.wav" WAVE
TRACK 02 AUDIO
TITLE "Caruso"
PERFORMER "Katherine Jenkins"
INDEX 01 00:00:00
FILE "03 - Va Pensiero.wav" WAVE
TRACK 03 AUDIO
TITLE "Va Pensiero"
PERFORMER "Katherine Jenkins"
INDEX 01 00:00:00
FILE "04 - House Of No Regrets.wav" WAVE
TRACK 04 AUDIO
TITLE "House Of No Regrets"
PERFORMER "Katherine Jenkins"
INDEX 01 00:00:00
FILE "05 - O Sole Mio.wav" WAVE
TRACK 05 AUDIO
TITLE "O Sole Mio"
PERFORMER "Katherine Jenkins"
INDEX 01 00:00:00
FILE "06 - En Aranjuez Con Tu Amor.wav" WAVE
TRACK 06 AUDIO
TITLE "En Aranjuez Con Tu Amor"
PERFORMER "Katherine Jenkins"
INDEX 01 00:00:00
FILE "07 - Seguedilla.wav" WAVE
TRACK 07 AUDIO
TITLE "Seguedilla"
PERFORMER "Katherine Jenkins"
INDEX 01 00:00:00
FILE "08 - Song To The Moon.wav" WAVE
TRACK 08 AUDIO
TITLE "Song To The Moon"
PERFORMER "Katherine Jenkins"
INDEX 01 00:00:00
FILE "09 - Calon Lan.wav" WAVE
TRACK 09 AUDIO
TITLE "Calon Lan"
PERFORMER "Katherine Jenkins"
INDEX 01 00:00:00
FILE "10 - Hymn To The Fallen.wav" WAVE
TRACK 10 AUDIO
TITLE "Hymn To The Fallen"
PERFORMER "Katherine Jenkins"
INDEX 01 00:00:00
FILE "11 - Laudate Dominum.wav" WAVE
TRACK 11 AUDIO
TITLE "Laudate Dominum"
PERFORMER "Katherine Jenkins"
INDEX 01 00:00:00
FILE "12 - You'll Never Walk Alone.wav" WAVE
TRACK 12 AUDIO
TITLE "You'll Never Walk Alone"
PERFORMER "Katherine Jenkins"
INDEX 01 00:00:00

2007 - Rejoice

01 - Rejoice (03:15)
02 - I (Who Have Nothing) (02:43)
03 - Sancta Maria (03:49)
04 - Secret Love (03:56)
05 - Le Cose Che Sei Per Me (The Things You Are To Me) (04:21)
06 - How Do You Leave The One You Love (04:08)
07 - Requiem For A Soldier (03:47)
08 - Somewhere (03:35)
09 - Shout In Silence (04:47)
10 - Be Still My Soul (03:43)
11 - Kiss From A Rose (04:51)
12 - I Will Pray For You (04:46)
13 - Viva Tonight (05:28)
Продолжительность: 00:53:09

LOG

Exact Audio Copy V0.99 prebeta 4 from 23. January 2008
EAC extraction logfile from 2. August 2008, 7:16
katherine jenkins / rejoice
Used drive : HL-DT-STCD-RW GCE-8525B Adapter: 1 ID: 0
Read mode : Secure
Utilize accurate stream : Yes
Defeat audio cache : Yes
Make use of C2 pointers : No
Read offset correction : 6
Overread into Lead-In and Lead-Out : No
Fill up missing offset samples with silence : Yes
Delete leading and trailing silent blocks : No
Null samples used in CRC calculations : Yes
Used interface : Installed external ASPI interface
Gap handling : Appended to previous track
Used output format : User Defined Encoder
Selected bitrate : 320 kBit/s
Quality : High
Add ID3 tag : No
Command line compressor : C:\Arquivos de programas\Exact Audio Copy\Flac\flac.exe
Additional command line options : -V -8 -T "artist=%a" -T "title=%t" -T "album=%g" -T "date=%y" -T "tracknumber=%n" -T "genre=%m" %s
TOC of the extracted CD
Track | Start | Length | Start sector | End sector
---------------------------------------------------------
1 | 0:00.00 | 3:15.18 | 0 | 14642
2 | 3:15.18 | 2:43.00 | 14643 | 26867
3 | 5:58.18 | 3:49.15 | 26868 | 44057
4 | 9:47.33 | 3:55.51 | 44058 | 61733
5 | 13:43.09 | 4:20.46 | 61734 | 81279
6 | 18:03.55 | 4:08.37 | 81280 | 99916
7 | 22:12.17 | 3:46.63 | 99917 | 116929
8 | 25:59.05 | 3:34.72 | 116930 | 133051
9 | 29:34.02 | 4:47.17 | 133052 | 154593
10 | 34:21.19 | 3:42.70 | 154594 | 171313
11 | 38:04.14 | 4:51.21 | 171314 | 193159
12 | 42:55.35 | 4:46.19 | 193160 | 214628
13 | 47:41.54 | 5:28.09 | 214629 | 239237
Track 1
Filename F:\exact audio copy [FLAC]\01 - rejoice.wav
Pre-gap length 0:00:02.00
Peak level 99.4 %
Track quality 99.9 %
Test CRC 6DAA56F2
Copy CRC 6DAA56F2
Track not present in AccurateRip database
Copy OK
Track 2
Filename F:\exact audio copy [FLAC]\02 - i (who have nothing).wav
Peak level 99.3 %
Track quality 100.0 %
Test CRC 93E9B4D7
Copy CRC 93E9B4D7
Track not present in AccurateRip database
Copy OK
Track 3
Filename F:\exact audio copy [FLAC]\03 - sancta maria.wav
Peak level 78.0 %
Track quality 100.0 %
Test CRC 13024C84
Copy CRC 13024C84
Track not present in AccurateRip database
Copy OK
Track 4
Filename F:\exact audio copy [FLAC]\04 - secret love.wav
Peak level 91.5 %
Track quality 100.0 %
Test CRC 61BD085B
Copy CRC 61BD085B
Track not present in AccurateRip database
Copy OK
Track 5
Filename F:\exact audio copy [FLAC]\05 - le cose che sei per me (the things you are to me).wav
Peak level 95.4 %
Track quality 100.0 %
Test CRC 77A78BF6
Copy CRC 77A78BF6
Track not present in AccurateRip database
Copy OK
Track 6
Filename F:\exact audio copy [FLAC]\06 - how do you leave the one you love.wav
Peak level 100.0 %
Track quality 100.0 %
Test CRC 147E3F5A
Copy CRC 147E3F5A
Track not present in AccurateRip database
Copy OK
Track 7
Filename F:\exact audio copy [FLAC]\07 - requiem for a soldier.wav
Peak level 100.0 %
Track quality 100.0 %
Test CRC 918302CE
Copy CRC 918302CE
Track not present in AccurateRip database
Copy OK
Track 8
Filename F:\exact audio copy [FLAC]\08 - somewhere.wav
Peak level 98.8 %
Track quality 100.0 %
Test CRC D8A85A86
Copy CRC D8A85A86
Track not present in AccurateRip database
Copy OK
Track 9
Filename F:\exact audio copy [FLAC]\09 - shout in silence.wav
Peak level 98.8 %
Track quality 99.9 %
Test CRC CC111DDA
Copy CRC CC111DDA
Track not present in AccurateRip database
Copy OK
Track 10
Filename F:\exact audio copy [FLAC]\10 - be still my soul.wav
Peak level 99.3 %
Track quality 100.0 %
Test CRC F3DAD97A
Copy CRC F3DAD97A
Track not present in AccurateRip database
Copy OK
Track 11
Filename F:\exact audio copy [FLAC]\11 - kiss from a rose.wav
Peak level 98.8 %
Track quality 100.0 %
Test CRC 074B5657
Copy CRC 074B5657
Track not present in AccurateRip database
Copy OK
Track 12
Filename F:\exact audio copy [FLAC]\12 - i will pray for you.wav
Peak level 99.3 %
Track quality 99.9 %
Test CRC 6F4C1280
Copy CRC 6F4C1280
Track not present in AccurateRip database
Copy OK
Track 13
Filename F:\exact audio copy [FLAC]\13 - viva tonight.wav
Peak level 98.8 %
Track quality 99.9 %
Test CRC 24F33254
Copy CRC 24F33254
Track not present in AccurateRip database
Copy OK
None of the tracks are present in the AccurateRip database
No errors occurred
End of status report

CUE

REM GENRE Classical
REM DATE 2007
REM DISCID C10C750D
REM COMMENT "ExactAudioCopy v0.99pb4"
PERFORMER "Katherine Jenkins"
TITLE "Rejoice"
FILE "01 - Rejoice.wav" WAVE
TRACK 01 AUDIO
TITLE "Rejoice"
PERFORMER "Katherine Jenkins"
INDEX 01 00:00:00
FILE "02 - I (Who Have Nothing).wav" WAVE
TRACK 02 AUDIO
TITLE "I (Who Have Nothing)"
PERFORMER "Katherine Jenkins"
INDEX 01 00:00:00
FILE "03 - Sancta Maria.wav" WAVE
TRACK 03 AUDIO
TITLE "Sancta Maria"
PERFORMER "Katherine Jenkins"
INDEX 01 00:00:00
FILE "04 - Secret Love.wav" WAVE
TRACK 04 AUDIO
TITLE "Secret Love"
PERFORMER "Katherine Jenkins"
INDEX 01 00:00:00
FILE "05 - Le Cose Che Sei Per Me (The Things You Are To Me).wav" WAVE
TRACK 05 AUDIO
TITLE "Le Cose Che Sei Per Me (The Things You Are To Me)"
PERFORMER "Katherine Jenkins"
INDEX 01 00:00:00
FILE "06 - How Do You Leave The One You Love.wav" WAVE
TRACK 06 AUDIO
TITLE "How Do You Leave The One You Love"
PERFORMER "Katherine Jenkins"
INDEX 01 00:00:00
FILE "07 - Requiem For A Soldier.wav" WAVE
TRACK 07 AUDIO
TITLE "Requiem For A Soldier"
PERFORMER "Katherine Jenkins"
INDEX 01 00:00:00
FILE "08 - Somewhere.wav" WAVE
TRACK 08 AUDIO
TITLE "Somewhere"
PERFORMER "Katherine Jenkins"
INDEX 01 00:00:00
FILE "09 - Shout In Silence.wav" WAVE
TRACK 09 AUDIO
TITLE "Shout In Silence"
PERFORMER "Katherine Jenkins"
INDEX 01 00:00:00
FILE "10 - Be Still My Soul.wav" WAVE
TRACK 10 AUDIO
TITLE "Be Still My Soul"
PERFORMER "Katherine Jenkins"
INDEX 01 00:00:00
FILE "11 - Kiss From A Rose.wav" WAVE
TRACK 11 AUDIO
TITLE "Kiss From A Rose"
PERFORMER "Katherine Jenkins"
INDEX 01 00:00:00
FILE "12 - I Will Pray For You.wav" WAVE
TRACK 12 AUDIO
TITLE "I Will Pray For You"
PERFORMER "Katherine Jenkins"
INDEX 01 00:00:00
FILE "13 - Viva Tonight.wav" WAVE
TRACK 13 AUDIO
TITLE "Viva Tonight"
PERFORMER "Katherine Jenkins"
INDEX 01 00:00:00

2008 - Sacred Arias

01 - Abide With Me (04:36)
02 - Pie Jesu (03:39)
03 - The Lord Is My Shepherd (02:57)
04 - Down In The River To Pray (03:00)
05 - May The Good Lord Bless And Keep You (04:36)
06 - Hallelujah (04:47)
07 - Panis Angelicus (02:40)
08 - In Paradisum (03:14)
09 - Silent Night (04:41)
10 - Ave Maria (03:51)
11 - Misa Criolla: Kyrie (03:54)
12 - Agnus Dei (06:28)
Продолжительность: 00:48:22

LOG

Exact Audio Copy V0.99 prebeta 4 from 23. January 2008
EAC extraction logfile from 20. December 2008, 14:52
Katherine Jenkins / Sacred Arias
Used drive : PIONEER DVD-RW DVR-212D Adapter: 1 ID: 0
Read mode : Secure
Utilize accurate stream : Yes
Defeat audio cache : Yes
Make use of C2 pointers : No
Read offset correction : 48
Overread into Lead-In and Lead-Out : No
Fill up missing offset samples with silence : Yes
Delete leading and trailing silent blocks : No
Null samples used in CRC calculations : Yes
Used interface : Native Win32 interface for Win NT & 2000
Gap handling : Appended to previous track
Used output format : User Defined Encoder
Selected bitrate : 768 kBit/s
Quality : High
Add ID3 tag : No
Command line compressor : C:\_encode\flac\bin\flac.exe
Additional command line options : -V -8 -T "artist=%a" -T "title=%t" -T "album=%g" -T "date=%y" -T "tracknumber=%n" -T "genre=%m" %s
TOC of the extracted CD
Track | Start | Length | Start sector | End sector
---------------------------------------------------------
1 | 0:00.00 | 4:35.51 | 0 | 20675
2 | 4:35.51 | 3:38.44 | 20676 | 37069
3 | 8:14.20 | 2:56.55 | 37070 | 50324
4 | 11:11.00 | 2:59.45 | 50325 | 63794
5 | 14:10.45 | 4:36.07 | 63795 | 84501
6 | 18:46.52 | 4:47.16 | 84502 | 106042
7 | 23:33.68 | 2:40.03 | 106043 | 118045
8 | 26:13.71 | 3:14.37 | 118046 | 132632
9 | 29:28.33 | 4:41.00 | 132633 | 153707
10 | 34:09.33 | 3:50.52 | 153708 | 171009
11 | 38:00.10 | 3:54.36 | 171010 | 188595
12 | 41:54.46 | 6:27.53 | 188596 | 217673
Track 1
Filename C:\_encode\SacredArias_tracks\01 - Abide With Me.wav
Pre-gap length 0:00:02.00
Peak level 99.3 %
Track quality 100.0 %
Test CRC 351F4F8C
Copy CRC 351F4F8C
Track not present in AccurateRip database
Copy OK
Track 2
Filename C:\_encode\SacredArias_tracks\02 - Pie Jesu.wav
Peak level 99.3 %
Track quality 100.0 %
Test CRC B98ABCC0
Copy CRC B98ABCC0
Track not present in AccurateRip database
Copy OK
Track 3
Filename C:\_encode\SacredArias_tracks\03 - The Lord Is My Shepherd.wav
Peak level 99.3 %
Track quality 100.0 %
Test CRC 8F37DBF6
Copy CRC 8F37DBF6
Track not present in AccurateRip database
Copy OK
Track 4
Filename C:\_encode\SacredArias_tracks\04 - Down In The River To Pray.wav
Peak level 100.0 %
Track quality 100.0 %
Test CRC 5510D861
Copy CRC 5510D861
Track not present in AccurateRip database
Copy OK
Track 5
Filename C:\_encode\SacredArias_tracks\05 - May The Good Lord Bless And Keep You.wav
Peak level 99.3 %
Track quality 100.0 %
Test CRC 30E6B03F
Copy CRC 30E6B03F
Track not present in AccurateRip database
Copy OK
Track 6
Filename C:\_encode\SacredArias_tracks\06 - Hallelujah.wav
Peak level 99.3 %
Track quality 99.9 %
Test CRC E3DD7056
Copy CRC E3DD7056
Track not present in AccurateRip database
Copy OK
Track 7
Filename C:\_encode\SacredArias_tracks\07 - Panis Angelicus.wav
Peak level 99.3 %
Track quality 99.9 %
Test CRC E4B6DCF5
Copy CRC E4B6DCF5
Track not present in AccurateRip database
Copy OK
Track 8
Filename C:\_encode\SacredArias_tracks\08 - In Paradisum.wav
Peak level 99.3 %
Track quality 100.0 %
Test CRC 074F5758
Copy CRC 074F5758
Track not present in AccurateRip database
Copy OK
Track 9
Filename C:\_encode\SacredArias_tracks\09 - Silent Night.wav
Peak level 99.3 %
Track quality 100.0 %
Test CRC 8702E79E
Copy CRC 8702E79E
Track not present in AccurateRip database
Copy OK
Track 10
Filename C:\_encode\SacredArias_tracks\10 - Ave Maria.wav
Peak level 99.3 %
Track quality 100.0 %
Test CRC B55583A2
Copy CRC B55583A2
Track not present in AccurateRip database
Copy OK
Track 11
Filename C:\_encode\SacredArias_tracks\11 - Misa Criolla- Kyrie.wav
Peak level 53.0 %
Track quality 100.0 %
Test CRC 86318E2D
Copy CRC 86318E2D
Track not present in AccurateRip database
Copy OK
Track 12
Filename C:\_encode\SacredArias_tracks\12 - Agnus Dei.wav
Peak level 99.3 %
Track quality 100.0 %
Test CRC C745A407
Copy CRC C745A407
Track not present in AccurateRip database
Copy OK
None of the tracks are present in the AccurateRip database
No errors occurred
End of status report

CUE

REM GENRE Classical
REM DATE 2008
REM DISCID A00B560C
REM COMMENT "ExactAudioCopy v0.99pb4"
CATALOG 0028947669722
PERFORMER "Katherine Jenkins"
TITLE "Sacred Arias"
FILE "01 - Abide With Me.wav" WAVE
TRACK 01 AUDIO
TITLE "Abide With Me"
PERFORMER "Katherine Jenkins"
ISRC GBUM70810973
INDEX 01 00:00:00
FILE "02 - Pie Jesu.wav" WAVE
TRACK 02 AUDIO
TITLE "Pie Jesu"
PERFORMER "Katherine Jenkins"
ISRC GBUM70810990
INDEX 01 00:00:00
FILE "03 - The Lord Is My Shepherd.wav" WAVE
TRACK 03 AUDIO
TITLE "The Lord Is My Shepherd"
PERFORMER "Katherine Jenkins"
ISRC GBUM70810991
INDEX 01 00:00:00
FILE "04 - Down In The River To Pray.wav" WAVE
TRACK 04 AUDIO
TITLE "Down In The River To Pray"
PERFORMER "Katherine Jenkins"
ISRC GBUM70810992
INDEX 01 00:00:00
FILE "05 - May The Good Lord Bless And Keep You.wav" WAVE
TRACK 05 AUDIO
TITLE "May The Good Lord Bless And Keep You"
PERFORMER "Katherine Jenkins"
ISRC GBUM70810993
INDEX 01 00:00:00
FILE "06 - Hallelujah.wav" WAVE
TRACK 06 AUDIO
TITLE "Hallelujah"
PERFORMER "Katherine Jenkins"
ISRC GBUM70810994
INDEX 01 00:00:00
FILE "07 - Panis Angelicus.wav" WAVE
TRACK 07 AUDIO
TITLE "Panis Angelicus"
PERFORMER "Katherine Jenkins"
ISRC GBUM70810995
INDEX 01 00:00:00
FILE "08 - In Paradisum.wav" WAVE
TRACK 08 AUDIO
TITLE "In Paradisum"
PERFORMER "Katherine Jenkins"
ISRC GBUM70811000
INDEX 01 00:00:00
FILE "09 - Silent Night.wav" WAVE
TRACK 09 AUDIO
TITLE "Silent Night"
PERFORMER "Katherine Jenkins"
ISRC GBUM70810996
INDEX 01 00:00:00
FILE "10 - Ave Maria.wav" WAVE
TRACK 10 AUDIO
TITLE "Ave Maria"
PERFORMER "Katherine Jenkins"
ISRC GBUM70810997
INDEX 01 00:00:00
FILE "11 - Misa Criolla- Kyrie.wav" WAVE
TRACK 11 AUDIO
TITLE "Misa Criolla: Kyrie"
PERFORMER "Katherine Jenkins"
ISRC GBUM70810998
INDEX 01 00:00:00
FILE "12 - Agnus Dei.wav" WAVE
TRACK 12 AUDIO
TITLE "Agnus Dei"
PERFORMER "Katherine Jenkins"
ISRC GBUM70810999
INDEX 01 00:00:00

2009 - Believe

01 - Till There Was You (03:32)
02 - Bring Me To Life (03:47)
03 - Angel (05:54)
04 - I Believe (With Andrea Bocelli) (04:25)
05 - Fear Of Falling (03:59)
06 - Parla Piu Piano - Love Theme From The Godfather (04:18)
07 - Ancora Non Sai (With Violinist Andre Rieu) (04:59)
08 - No Woman, No Cry (With Cody Carey) (04:54)
09 - La Vie En Rose (03:23)
10 - La Califfa (With Chris Botti) (03:31)
11 - Who Wants To Live Forever (04:07)
12 - Se Si Perde Un Amore (04:46)
Продолжительность: 00:51:33

LOG

Exact Audio Copy V0.99 prebeta 5 from 4. May 2009
EAC extraction logfile from 29. December 2009, 12:34
Katherine Jenkins / Believe
Used drive : TSSTcorpCDDVDW SH-S203D Adapter: 4 ID: 0
Read mode : Secure
Utilize accurate stream : Yes
Defeat audio cache : Yes
Make use of C2 pointers : No
Read offset correction : 6
Overread into Lead-In and Lead-Out : No
Fill up missing offset samples with silence : Yes
Delete leading and trailing silent blocks : No
Null samples used in CRC calculations : Yes
Used interface : Native Win32 interface for Win NT & 2000
Gap handling : Appended to previous track
Used output format : User Defined Encoder
Selected bitrate : 768 kBit/s
Quality : High
Add ID3 tag : No
Command line compressor : C:\Program Files\Exact Audio Copy\FLAC\FLAC.EXE
Additional command line options : -V -8 -T "artist=%a" -T "title=%t" -T "album=%g" -T "date=%y" -T "tracknumber=%n" -T "genre=%m" %s
TOC of the extracted CD
Track | Start | Length | Start sector | End sector
---------------------------------------------------------
1 | 0:00.00 | 3:31.61 | 0 | 15885
2 | 3:31.61 | 3:46.51 | 15886 | 32886
3 | 7:18.37 | 5:54.05 | 32887 | 59441
4 | 13:12.42 | 4:24.65 | 59442 | 79306
5 | 17:37.32 | 3:58.67 | 79307 | 97223
6 | 21:36.24 | 4:18.02 | 97224 | 116575
7 | 25:54.26 | 4:58.67 | 116576 | 138992
8 | 30:53.18 | 4:54.01 | 138993 | 161043
9 | 35:47.19 | 3:22.41 | 161044 | 176234
10 | 39:09.60 | 3:30.56 | 176235 | 192040
11 | 42:40.41 | 4:07.11 | 192041 | 210576
12 | 46:47.52 | 4:45.45 | 210577 | 231996
Track 1
Filename C:\Music\Rips\Katherine Jenkins - Believe\01 - Till There Was You.wav
Pre-gap length 0:00:02.00
Peak level 98.5 %
Track quality 100.0 %
Test CRC 895BA6FF
Copy CRC 895BA6FF
Accurately ripped (confidence 4) [B2456E25]
Copy OK
Track 2
Filename C:\Music\Rips\Katherine Jenkins - Believe\02 - Bring Me To Life.wav
Peak level 99.3 %
Track quality 100.0 %
Test CRC D2DC80DF
Copy CRC D2DC80DF
Accurately ripped (confidence 4) [3C08688E]
Copy OK
Track 3
Filename C:\Music\Rips\Katherine Jenkins - Believe\03 - Angel.wav
Peak level 98.5 %
Track quality 100.0 %
Test CRC 0384925A
Copy CRC 0384925A
Accurately ripped (confidence 4) [814A8E91]
Copy OK
Track 4
Filename C:\Music\Rips\Katherine Jenkins - Believe\04 - I Believe (With Andrea Bocelli).wav
Pre-gap length 0:00:00.09
Peak level 94.0 %
Track quality 100.0 %
Test CRC 98B4CD52
Copy CRC 98B4CD52
Accurately ripped (confidence 4) [E83B203D]
Copy OK
Track 5
Filename C:\Music\Rips\Katherine Jenkins - Believe\05 - Fear Of Falling.wav
Peak level 99.3 %
Track quality 100.0 %
Test CRC 1F38AF3F
Copy CRC 1F38AF3F
Accurately ripped (confidence 4) [279250B4]
Copy OK
Track 6
Filename C:\Music\Rips\Katherine Jenkins - Believe\06 - Parla Piщ Piano - Love Theme From The Godfather.wav
Peak level 98.6 %
Track quality 99.9 %
Test CRC 4A4F0EA2
Copy CRC 4A4F0EA2
Accurately ripped (confidence 4) [37FD8C6F]
Copy OK
Track 7
Filename C:\Music\Rips\Katherine Jenkins - Believe\07 - Ancora Non Sai (With Violinist Andre Rieu).wav
Pre-gap length 0:00:00.02
Peak level 97.7 %
Track quality 100.0 %
Test CRC D05167BD
Copy CRC D05167BD
Accurately ripped (confidence 4) [8DB769F2]
Copy OK
Track 8
Filename C:\Music\Rips\Katherine Jenkins - Believe\08 - No Woman, No Cry (With Cody Carey).wav
Peak level 98.9 %
Track quality 100.0 %
Test CRC 4FE30E78
Copy CRC 4FE30E78
Accurately ripped (confidence 4) [E2F3A08F]
Copy OK
Track 9
Filename C:\Music\Rips\Katherine Jenkins - Believe\09 - La Vie En Rose.wav
Peak level 97.2 %
Track quality 99.9 %
Test CRC 9496CFBD
Copy CRC 9496CFBD
Accurately ripped (confidence 4) [7313EA3B]
Copy OK
Track 10
Filename C:\Music\Rips\Katherine Jenkins - Believe\10 - La Califfa (With Chris Botti).wav
Peak level 98.3 %
Track quality 100.0 %
Test CRC D39ECD90
Copy CRC D39ECD90
Accurately ripped (confidence 4) [D13202CB]
Copy OK
Track 11
Filename C:\Music\Rips\Katherine Jenkins - Believe\11 - Who Wants To Live Forever.wav
Peak level 99.2 %
Track quality 100.0 %
Test CRC 1955ECA1
Copy CRC 1955ECA1
Accurately ripped (confidence 4) [B71EFE7B]
Copy OK
Track 12
Filename C:\Music\Rips\Katherine Jenkins - Believe\12 - Se Si Perde Un Amore.wav
Peak level 98.4 %
Track quality 99.9 %
Test CRC 6BEA28B3
Copy CRC 6BEA28B3
Accurately ripped (confidence 3) [19088A3C]
Copy OK
All tracks accurately ripped
No errors occurred
End of status report

CUE

REM GENRE Classical
REM DATE 2009
REM DISCID A80C150C
REM COMMENT "ExactAudioCopy v0.99pb5"
PERFORMER "Katherine Jenkins"
TITLE "Believe"
FILE "01 - Till There Was You.wav" WAVE
TRACK 01 AUDIO
TITLE "Till There Was You"
PERFORMER "Katherine Jenkins"
INDEX 01 00:00:00
FILE "02 - Bring Me To Life.wav" WAVE
TRACK 02 AUDIO
TITLE "Bring Me To Life"
PERFORMER "Katherine Jenkins"
INDEX 01 00:00:00
FILE "03 - Angel.wav" WAVE
TRACK 03 AUDIO
TITLE "Angel"
PERFORMER "Katherine Jenkins"
INDEX 01 00:00:00
TRACK 04 AUDIO
TITLE "I Believe (With Andrea Bocelli)"
PERFORMER "Katherine Jenkins"
INDEX 00 05:53:71
FILE "04 - I Believe (With Andrea Bocelli).wav" WAVE
INDEX 01 00:00:00
FILE "05 - Fear Of Falling.wav" WAVE
TRACK 05 AUDIO
TITLE "Fear Of Falling"
PERFORMER "Katherine Jenkins"
INDEX 01 00:00:00
FILE "06 - Parla Piu Piano - Love Theme From The Godfather.wav" WAVE
TRACK 06 AUDIO
TITLE "Parla Piu Piano - Love Theme From The Godfather"
PERFORMER "Katherine Jenkins"
INDEX 01 00:00:00
TRACK 07 AUDIO
TITLE "Ancora Non Sai (With Violinist Andre Rieu)"
PERFORMER "Katherine Jenkins"
INDEX 00 04:18:00
FILE "07 - Ancora Non Sai (With Violinist Andre Rieu).wav" WAVE
INDEX 01 00:00:00
FILE "08 - No Woman, No Cry (With Cody Carey).wav" WAVE
TRACK 08 AUDIO
TITLE "No Woman, No Cry (With Cody Carey)"
PERFORMER "Katherine Jenkins"
INDEX 01 00:00:00
FILE "09 - La Vie En Rose.wav" WAVE
TRACK 09 AUDIO
TITLE "La Vie En Rose"
PERFORMER "Katherine Jenkins"
INDEX 01 00:00:00
FILE "10 - La Califfa (With Chris Botti).wav" WAVE
TRACK 10 AUDIO
TITLE "La Califfa (With Chris Botti)"
PERFORMER "Katherine Jenkins"
INDEX 01 00:00:00
FILE "11 - Who Wants To Live Forever.wav" WAVE
TRACK 11 AUDIO
TITLE "Who Wants To Live Forever"
PERFORMER "Katherine Jenkins"
INDEX 01 00:00:00
FILE "12 - Se Si Perde Un Amore.wav" WAVE
TRACK 12 AUDIO
TITLE "Se Si Perde Un Amore"
PERFORMER "Katherine Jenkins"
INDEX 01 00:00:00

2011 - Daydream

01 - Black Is The Colour (04:20)
02 - Your Silhouette (04:12)
03 - Can't Slow Down (03:31)
04 - J'Avais Revé D'Une Autre Vie (I Dreamed A Dream) (03:47)
05 - Carrickfergus (03:13)
06 - L'Alba Verra (The Dawn Will Come) (04:26)
07 - & This Is My Beloved (03:18)
08 - Love Divine (Hyfrydol) (03:18)
09 - Ave Maria (04:38)
10 - A Flower Tells A Story (04:12)
11 - Break It To My Heart (03:31)
12 - Blaenwern (03:54)
13 - Abigail's Song (Bonus Track) (04:40)
Продолжительность: 00:50:59

LOG

X Lossless Decoder version 20120407 (140.0)
XLD extraction logfile from 2012-04-15 15:59:59 +1200
Katherine Jenkins / Daydream
Used drive : MATSHITA DVD-R UJ-898 (revision HC10)
Ripper mode : XLD Secure Ripper
Disable audio cache : OK for the drive with a cache less than 1375KiB
Make use of C2 pointers : NO
Read offset correction : 102
Max retry count : 20
Gap status : Analyzed, Appended (except HTOA)
TOC of the extracted CD
Track | Start | Length | Start sector | End sector
---------------------------------------------------------
1 | 00:00:00 | 04:20:21 | 0 | 19520
2 | 04:20:21 | 04:11:47 | 19521 | 38392
3 | 08:31:68 | 03:30:54 | 38393 | 54196
4 | 12:02:47 | 03:46:53 | 54197 | 71199
5 | 15:49:25 | 03:12:40 | 71200 | 85639
6 | 19:01:65 | 04:25:53 | 85640 | 105567
7 | 23:27:43 | 03:17:69 | 105568 | 120411
8 | 26:45:37 | 03:18:09 | 120412 | 135270
9 | 30:03:46 | 04:37:56 | 135271 | 156101
10 | 34:41:27 | 04:12:25 | 156102 | 175026
11 | 38:53:52 | 03:31:30 | 175027 | 190881
12 | 42:25:07 | 03:54:20 | 190882 | 208451
13 | 46:19:27 | 04:39:51 | 208452 | 229427
List of alternate offset correction values
# | Absolute | Relative | Confidence
------------------------------------------
1 | 114 | 12 | 2
AccurateRip Summary
Track 01 : OK (AR2, confidence 2, with different offset)
Track 02 : OK (AR2, confidence 2, with different offset)
Track 03 : OK (AR2, confidence 2, with different offset)
Track 04 : OK (AR2, confidence 2, with different offset)
Track 05 : OK (AR2, confidence 2, with different offset)
Track 06 : OK (AR2, confidence 2, with different offset)
Track 07 : OK (AR2, confidence 2, with different offset)
Track 08 : OK (AR2, confidence 2, with different offset)
Track 09 : OK (AR2, confidence 2, with different offset)
Track 10 : OK (AR2, confidence 2, with different offset)
Track 11 : OK (AR2, confidence 2, with different offset)
Track 12 : OK (AR2, confidence 2, with different offset)
Track 13 : OK (AR2, confidence 2, with different offset)
->All tracks accurately ripped.
All Tracks
Album gain : -8.30 dB
Peak : 1.000000
Statistics
Read error : 0
Jitter error (maybe fixed) : 0
Retry sector count : 0
Damaged sector count : 0
Track 01
Filename : /XLD Rips/Katherine Jenkins - Daydream (2011) [FLAC]/01 Katherine Jenkins - Black Is The Colour.flac
Pre-gap length : 00:02:00
Track gain : -8.26 dB
Peak : 0.996307
CRC32 hash (test run) : BB43F826
CRC32 hash : BB43F826
CRC32 hash (skip zero) : 1582FAB3
AccurateRip signature : FC73AA7C
->Accurately ripped! (AR2, confidence 2)
(matched with the different offset correction value;
calculated using an additional offset of 12;
the signature after correction is: 5E692E0A)
Statistics
Read error : 0
Jitter error (maybe fixed) : 0
Retry sector count : 0
Damaged sector count : 0
Track 02
Filename : /XLD Rips/Katherine Jenkins - Daydream (2011) [FLAC]/02 Katherine Jenkins - Your Silhouette.flac
Pre-gap length : 00:01:51
Track gain : -8.01 dB
Peak : 0.996429
CRC32 hash (test run) : 975716B5
CRC32 hash : 975716B5
CRC32 hash (skip zero) : 52824D7F
AccurateRip signature : B081CDD1
->Accurately ripped! (AR2, confidence 2)
(matched with the different offset correction value;
calculated using an additional offset of 12;
the signature after correction is: A92A7E4B)
Statistics
Read error : 0
Jitter error (maybe fixed) : 0
Retry sector count : 0
Damaged sector count : 0
Track 03
Filename : /XLD Rips/Katherine Jenkins - Daydream (2011) [FLAC]/03 Katherine Jenkins - Can't Slow Down.flac
Pre-gap length : 00:00:70
Track gain : -8.04 dB
Peak : 0.888184
CRC32 hash (test run) : 5D52F732
CRC32 hash : 5D52F732
CRC32 hash (skip zero) : 712589E2
AccurateRip signature : CA2F56A7
->Accurately ripped! (AR2, confidence 2)
(matched with the different offset correction value;
calculated using an additional offset of 12;
the signature after correction is: 2B70A4BB)
Statistics
Read error : 0
Jitter error (maybe fixed) : 0
Retry sector count : 0
Damaged sector count : 0
Track 04
Filename : /XLD Rips/Katherine Jenkins - Daydream (2011) [FLAC]/04 Katherine Jenkins - J'Avais Revé D'Une Autre Vie (I Dreamed A Dream).flac
Pre-gap length : 00:02:23
Track gain : -6.86 dB
Peak : 0.996552
CRC32 hash (test run) : AD36C95F
CRC32 hash : AD36C95F
CRC32 hash (skip zero) : 7856F436
AccurateRip signature : 5F1CBE3D
->Accurately ripped! (AR2, confidence 2)
(matched with the different offset correction value;
calculated using an additional offset of 12;
the signature after correction is: 759AFE4F)
Statistics
Read error : 0
Jitter error (maybe fixed) : 0
Retry sector count : 0
Damaged sector count : 0
Track 05
Filename : /XLD Rips/Katherine Jenkins - Daydream (2011) [FLAC]/05 Katherine Jenkins - Carrickfergus.flac
Pre-gap length : 00:02:06
Track gain : -7.97 dB
Peak : 0.996429
CRC32 hash (test run) : 1C290D27
CRC32 hash : 1C290D27
CRC32 hash (skip zero) : 68C72F56
AccurateRip signature : E38D5909
->Accurately ripped! (AR2, confidence 2)
(matched with the different offset correction value;
calculated using an additional offset of 12;
the signature after correction is: 861EFD88)
Statistics
Read error : 0
Jitter error (maybe fixed) : 0
Retry sector count : 0
Damaged sector count : 0
Track 06
Filename : /XLD Rips/Katherine Jenkins - Daydream (2011) [FLAC]/06 Katherine Jenkins - L'Alba Verra (The Dawn Will Come).flac
Pre-gap length : 00:00:33
Track gain : -8.29 dB
Peak : 0.996521
CRC32 hash (test run) : BD7B6518
CRC32 hash : BD7B6518
CRC32 hash (skip zero) : 4D4D651B
AccurateRip signature : C06FACBA
->Accurately ripped! (AR2, confidence 2)
(matched with the different offset correction value;
calculated using an additional offset of 12;
the signature after correction is: 4E2007F8)
Statistics
Read error : 0
Jitter error (maybe fixed) : 0
Retry sector count : 0
Damaged sector count : 0
Track 07
Filename : /XLD Rips/Katherine Jenkins - Daydream (2011) [FLAC]/07 Katherine Jenkins - & This Is My Beloved.flac
Pre-gap length : 00:01:62
Track gain : -9.05 dB
Peak : 0.996277
CRC32 hash (test run) : 9327DC0A
CRC32 hash : 9327DC0A
CRC32 hash (skip zero) : 5DE4B8B9
AccurateRip signature : 7AB03264
->Accurately ripped! (AR2, confidence 2)
(matched with the different offset correction value;
calculated using an additional offset of 12;
the signature after correction is: AAFF40FA)
Statistics
Read error : 0
Jitter error (maybe fixed) : 0
Retry sector count : 0
Damaged sector count : 0
Track 08
Filename : /XLD Rips/Katherine Jenkins - Daydream (2011) [FLAC]/08 Katherine Jenkins - Love Divine (Hyfrydol).flac
Pre-gap length : 00:01:47
Track gain : -9.41 dB
Peak : 0.996094
CRC32 hash (test run) : F955BFA2
CRC32 hash : F955BFA2
CRC32 hash (skip zero) : 8FD05E4F
AccurateRip signature : 94365D83
->Accurately ripped! (AR2, confidence 2)
(matched with the different offset correction value;
calculated using an additional offset of 12;
the signature after correction is: 6EC88F19)
Statistics
Read error : 0
Jitter error (maybe fixed) : 0
Retry sector count : 0
Damaged sector count : 0
Track 09
Filename : /XLD Rips/Katherine Jenkins - Daydream (2011) [FLAC]/09 Katherine Jenkins - Ave Maria.flac
Pre-gap length : 00:02:29
Track gain : -6.94 dB
Peak : 0.996094
CRC32 hash (test run) : F5829282
CRC32 hash : F5829282
CRC32 hash (skip zero) : BA77B074
AccurateRip signature : C2ADC8F5
->Accurately ripped! (AR2, confidence 2)
(matched with the different offset correction value;
calculated using an additional offset of 12;
the signature after correction is: FB6142A4)
Statistics
Read error : 0
Jitter error (maybe fixed) : 0
Retry sector count : 0
Damaged sector count : 0
Track 10
Filename : /XLD Rips/Katherine Jenkins - Daydream (2011) [FLAC]/10 Katherine Jenkins - A Flower Tells A Story.flac
Pre-gap length : 00:02:15
Track gain : -8.69 dB
Peak : 1.000000
CRC32 hash (test run) : F01ECDC5
CRC32 hash : F01ECDC5
CRC32 hash (skip zero) : 79FC6A70
AccurateRip signature : 5D54C1A9
->Accurately ripped! (AR2, confidence 2)
(matched with the different offset correction value;
calculated using an additional offset of 12;
the signature after correction is: B08E43FF)
Statistics
Read error : 0
Jitter error (maybe fixed) : 0
Retry sector count : 0
Damaged sector count : 0
Track 11
Filename : /XLD Rips/Katherine Jenkins - Daydream (2011) [FLAC]/11 Katherine Jenkins - Break It To My Heart.flac
Pre-gap length : 00:01:16
Track gain : -9.08 dB
Peak : 0.996368
CRC32 hash (test run) : 50295F1F
CRC32 hash : 50295F1F
CRC32 hash (skip zero) : B0117233
AccurateRip signature : 7DBDDBE3
->Accurately ripped! (AR2, confidence 2)
(matched with the different offset correction value;
calculated using an additional offset of 12;
the signature after correction is: 59B0DC70)
Statistics
Read error : 0
Jitter error (maybe fixed) : 0
Retry sector count : 0
Damaged sector count : 0
Track 12
Filename : /XLD Rips/Katherine Jenkins - Daydream (2011) [FLAC]/12 Katherine Jenkins - Blaenwern.flac
Pre-gap length : 00:00:71
Track gain : -7.03 dB
Peak : 0.995850
CRC32 hash (test run) : 387E1E7E
CRC32 hash : 387E1E7E
CRC32 hash (skip zero) : EB947759
AccurateRip signature : 4E9FD6EB
->Accurately ripped! (AR2, confidence 2)
(matched with the different offset correction value;
calculated using an additional offset of 12;
the signature after correction is: 6F3FC9FB)
Statistics
Read error : 0
Jitter error (maybe fixed) : 0
Retry sector count : 0
Damaged sector count : 0
Track 13
Filename : /XLD Rips/Katherine Jenkins - Daydream (2011) [FLAC]/13 Katherine Jenkins - Abigail's Song (Bonus Track).flac
Pre-gap length : 00:01:58
Track gain : -8.03 dB
Peak : 0.999969
CRC32 hash (test run) : 38A0A175
CRC32 hash : 38A0A175
CRC32 hash (skip zero) : 70FD461E
AccurateRip signature : 8F9898CD
->Accurately ripped! (AR2, confidence 2)
(matched with the different offset correction value;
calculated using an additional offset of 12;
the signature after correction is: 4CDC0BDB)
Statistics
Read error : 0
Jitter error (maybe fixed) : 0
Retry sector count : 0
Damaged sector count : 0
No errors occurred
End of status report

CUE

TITLE "Daydream"
PERFORMER "Katherine Jenkins"
CATALOG 5052498805822
REM GENRE "Classical"
REM DATE "2011"
REM DISCNUMBER 1
REM TOTALDISCS 1
REM DISCID A20BF30D
REM REPLAYGAIN_ALBUM_GAIN -8.30 dB
REM REPLAYGAIN_ALBUM_PEAK 1.000000
FILE "01 - Black Is The Colour.wav" WAVE
TRACK 01 AUDIO
TITLE "Black Is The Colour"
ISRC GBAHT1100181
REM REPLAYGAIN_TRACK_GAIN -8.26 dB
REM REPLAYGAIN_TRACK_PEAK 0.996307
INDEX 01 00:00:00
TRACK 02 AUDIO
TITLE "Your Silhouette"
ISRC GBAHT1100182
REM REPLAYGAIN_TRACK_GAIN -8.01 dB
REM REPLAYGAIN_TRACK_PEAK 0.996429
INDEX 00 04:18:45
FILE "02 - Your Silhouette.wav" WAVE
INDEX 01 00:00:00
TRACK 03 AUDIO
TITLE "Can't Slow Down"
ISRC GBAHT1100183
REM REPLAYGAIN_TRACK_GAIN -8.04 dB
REM REPLAYGAIN_TRACK_PEAK 0.888184
INDEX 00 04:10:52
FILE "03 - Can't Slow Down.wav" WAVE
INDEX 01 00:00:00
TRACK 04 AUDIO
TITLE "J'Avais Revé D'Une Autre Vie (I Dreamed A Dream)"
ISRC GBAHT1100184
REM REPLAYGAIN_TRACK_GAIN -6.86 dB
REM REPLAYGAIN_TRACK_PEAK 0.996552
INDEX 00 03:28:31
FILE "04 - J'Avais Revé D'Une Autre Vie (I Dreamed A Dream).wav" WAVE
INDEX 01 00:00:00
TRACK 05 AUDIO
TITLE "Carrickfergus"
ISRC GBAHT1100185
REM REPLAYGAIN_TRACK_GAIN -7.97 dB
REM REPLAYGAIN_TRACK_PEAK 0.996429
INDEX 00 03:44:47
FILE "05 - Carrickfergus.wav" WAVE
INDEX 01 00:00:00
TRACK 06 AUDIO
TITLE "L'Alba Verra (The Dawn Will Come)"
ISRC GBAHT1100186
REM REPLAYGAIN_TRACK_GAIN -8.29 dB
REM REPLAYGAIN_TRACK_PEAK 0.996521
INDEX 00 03:12:07
FILE "06 - L'Alba Verra (The Dawn Will Come).wav" WAVE
INDEX 01 00:00:00
TRACK 07 AUDIO
TITLE "& This Is My Beloved"
ISRC GBAHT1100187
REM REPLAYGAIN_TRACK_GAIN -9.05 dB
REM REPLAYGAIN_TRACK_PEAK 0.996277
INDEX 00 04:23:66
FILE "07 - & This Is My Beloved.wav" WAVE
INDEX 01 00:00:00
TRACK 08 AUDIO
TITLE "Love Divine (Hyfrydol)"
ISRC GBAHT1100188
REM REPLAYGAIN_TRACK_GAIN -9.41 dB
REM REPLAYGAIN_TRACK_PEAK 0.996094
INDEX 00 03:16:22
FILE "08 - Love Divine (Hyfrydol).wav" WAVE
INDEX 01 00:00:00
TRACK 09 AUDIO
TITLE "Ave Maria"
ISRC GBAHT1100189
REM REPLAYGAIN_TRACK_GAIN -6.94 dB
REM REPLAYGAIN_TRACK_PEAK 0.996094
INDEX 00 03:15:55
FILE "09 - Ave Maria.wav" WAVE
INDEX 01 00:00:00
TRACK 10 AUDIO
TITLE "A Flower Tells A Story"
ISRC GBAHT1100190
REM REPLAYGAIN_TRACK_GAIN -8.69 dB
REM REPLAYGAIN_TRACK_PEAK 1.000000
INDEX 00 04:35:41
FILE "10 - A Flower Tells A Story.wav" WAVE
INDEX 01 00:00:00
TRACK 11 AUDIO
TITLE "Break It To My Heart"
ISRC GBAHT1100191
REM REPLAYGAIN_TRACK_GAIN -9.08 dB
REM REPLAYGAIN_TRACK_PEAK 0.996368
INDEX 00 04:11:09
FILE "11 - Break It To My Heart.wav" WAVE
INDEX 01 00:00:00
TRACK 12 AUDIO
TITLE "Blaenwern"
ISRC GBAHT1100192
REM REPLAYGAIN_TRACK_GAIN -7.03 dB
REM REPLAYGAIN_TRACK_PEAK 0.995850
INDEX 00 03:30:34
FILE "12 - Blaenwern.wav" WAVE
INDEX 01 00:00:00
TRACK 13 AUDIO
TITLE "Abigail's Song (Bonus Track)"
ISRC GBAHT1100193
REM REPLAYGAIN_TRACK_GAIN -8.03 dB
REM REPLAYGAIN_TRACK_PEAK 0.999969
INDEX 00 03:52:37
FILE "13 - Abigail's Song (Bonus Track).wav" WAVE
INDEX 01 00:00:00
Compilations:

2007 - From The Heart

01 - Nella Fantasia (05:11)
02 - (Quello Che Faro) Sara Per Te / (Everything I Do) I Do It For You (04:17)
03 - Time To Say Goodbye / Con Te Partiro (04:00)
04 - The Flower Duet (feat. Dame Kiri Te Kanawa) (03:51)
05 - Caruso (03:54)
06 - Nessun Dorma (02:53)
07 - L'Amore Sei Tu (I Will Always Love You) (04:22)
08 - Vide Cor Meum (04:02)
09 - The Prayer (04:38)
10 - Il Canto (03:29)
11 - Chanson Boheme (04:17)
12 - Hymn To The Fallen (04:32)
13 - Canto Della Terra (04:03)
14 - Cinema Paradiso (Se) (03:26)
Продолжительность: 00:56:54

LOG

Exact Audio Copy V1.0 beta 1 from 15. November 2010
EAC extraction logfile from 10. August 2011, 22:12
Katherine Jenkins / From The Heart
Used drive : LITE-ON DVDRW LH-20A1L Adapter: 3 ID: 1
Read mode : Secure
Utilize accurate stream : Yes
Defeat audio cache : Yes
Make use of C2 pointers : No
Read offset correction : 6
Overread into Lead-In and Lead-Out : No
Fill up missing offset samples with silence : Yes
Delete leading and trailing silent blocks : No
Null samples used in CRC calculations : Yes
Used interface : Native Win32 interface for Win NT & 2000
Gap handling : Appended to previous track
Used output format : User Defined Encoder
Selected bitrate : 128 kBit/s
Quality : High
Add ID3 tag : No
Command line compressor : C:\Program Files (x86)\Exact Audio Copy\Flac\flac.exe
Additional command line options : -V -8 -T "artist=%a" -T "title=%t" -T "album=%g" -T "date=%y" -T "tracknumber=%n" -T "genre=%m" %s
TOC of the extracted CD
Track | Start | Length | Start sector | End sector
---------------------------------------------------------
1 | 0:00.00 | 5:11.25 | 0 | 23349
2 | 5:11.25 | 4:16.43 | 23350 | 42592
3 | 9:27.68 | 3:59.67 | 42593 | 60584
4 | 13:27.60 | 3:51.30 | 60585 | 77939
5 | 17:19.15 | 3:54.12 | 77940 | 95501
6 | 21:13.27 | 2:53.11 | 95502 | 108487
7 | 24:06.38 | 4:22.01 | 108488 | 128138
8 | 28:28.39 | 4:01.38 | 128139 | 146251
9 | 32:30.02 | 4:37.53 | 146252 | 167079
10 | 37:07.55 | 3:28.59 | 167080 | 182738
11 | 40:36.39 | 4:17.01 | 182739 | 202014
12 | 44:53.40 | 4:32.07 | 202015 | 222421
13 | 49:25.47 | 4:02.41 | 222422 | 240612
14 | 53:28.13 | 3:26.12 | 240613 | 256074
Track 1
Filename C:\CD Rips\Katherine Jenkins\From The Heart\01 Nella Fantasia.wav
Pre-gap length 0:00:02.00
Peak level 99.3 %
Extraction speed 2.1 X
Track quality 100.0 %
Test CRC 6486BA09
Copy CRC 6486BA09
Accurately ripped (confidence 2) [2D911391]
Copy OK
Track 2
Filename C:\CD Rips\Katherine Jenkins\From The Heart\02 (Quello Che Faró) Sara Per Te , (Everything I Do) I Do It For You.wav
Peak level 99.4 %
Extraction speed 2.3 X
Track quality 100.0 %
Test CRC 944A2259
Copy CRC 944A2259
Accurately ripped (confidence 2) [A93683DE]
Copy OK
Track 3
Filename C:\CD Rips\Katherine Jenkins\From The Heart\03 Time To Say Goodbye , Con Te Partiro.wav
Peak level 99.3 %
Extraction speed 2.4 X
Track quality 100.0 %
Test CRC 95E83EFA
Copy CRC 95E83EFA
Accurately ripped (confidence 2) [54C13A90]
Copy OK
Track 4
Filename C:\CD Rips\Katherine Jenkins\From The Heart\04 The Flower Duet (feat. Dame Kiri Te Kanawa).wav
Pre-gap length 0:00:00.86
Peak level 99.3 %
Extraction speed 2.6 X
Track quality 100.0 %
Test CRC 70C75975
Copy CRC 70C75975
Accurately ripped (confidence 2) [356137B3]
Copy OK
Track 5
Filename C:\CD Rips\Katherine Jenkins\From The Heart\05 Caruso.wav
Pre-gap length 0:00:00.46
Peak level 99.3 %
Extraction speed 2.7 X
Track quality 100.0 %
Test CRC B5B67905
Copy CRC B5B67905
Accurately ripped (confidence 2) [0C347E84]
Copy OK
Track 6
Filename C:\CD Rips\Katherine Jenkins\From The Heart\06 Nessun Dorma.wav
Peak level 98.6 %
Extraction speed 2.7 X
Track quality 100.0 %
Test CRC 12673B58
Copy CRC 12673B58
Accurately ripped (confidence 2) [54CF9365]
Copy OK
Track 7
Filename C:\CD Rips\Katherine Jenkins\From The Heart\07 L'Amore Sei Tu (I Will Always Love You).wav
Peak level 98.6 %
Extraction speed 2.5 X
Track quality 99.9 %
Test CRC 601C2F5F
Copy CRC 601C2F5F
Accurately ripped (confidence 2) [FDA74AF1]
Copy OK
Track 8
Filename C:\CD Rips\Katherine Jenkins\From The Heart\08 Vide Cor Meum.wav
Peak level 95.2 %
Extraction speed 3.1 X
Track quality 100.0 %
Test CRC 56103B11
Copy CRC 56103B11
Accurately ripped (confidence 2) [82EE56F9]
Copy OK
Track 9
Filename C:\CD Rips\Katherine Jenkins\From The Heart\09 The Prayer.wav
Peak level 99.4 %
Extraction speed 3.3 X
Track quality 100.0 %
Test CRC AAC312F2
Copy CRC AAC312F2
Accurately ripped (confidence 2) [163813DF]
Copy OK
Track 10
Filename C:\CD Rips\Katherine Jenkins\From The Heart\10 Il Canto.wav
Pre-gap length 0:00:00.36
Peak level 99.4 %
Extraction speed 3.3 X
Track quality 100.0 %
Test CRC 315AD94F
Copy CRC 315AD94F
Accurately ripped (confidence 2) [198C310A]
Copy OK
Track 11
Filename C:\CD Rips\Katherine Jenkins\From The Heart\11 Chanson Bohème.wav
Pre-gap length 0:00:00.01
Peak level 99.4 %
Extraction speed 2.7 X
Track quality 99.9 %
Test CRC 23B47A70
Copy CRC 23B47A70
Accurately ripped (confidence 2) [C360F58A]
Copy OK
Track 12
Filename C:\CD Rips\Katherine Jenkins\From The Heart\12 Hymn To The Fallen.wav
Pre-gap length 0:00:00.86
Peak level 88.1 %
Extraction speed 3.7 X
Track quality 100.0 %
Test CRC CF967237
Copy CRC CF967237
Accurately ripped (confidence 2) [C1591310]
Copy OK
Track 13
Filename C:\CD Rips\Katherine Jenkins\From The Heart\13 Canto Della Terra.wav
Pre-gap length 0:00:01.52
Peak level 98.5 %
Extraction speed 3.8 X
Track quality 100.0 %
Test CRC 144E6538
Copy CRC 144E6538
Accurately ripped (confidence 2) [4F0DCF0E]
Copy OK
Track 14
Filename C:\CD Rips\Katherine Jenkins\From The Heart\14 Cinema Paradiso (Se).wav
Pre-gap length 0:00:00.37
Peak level 87.7 %
Extraction speed 3.7 X
Track quality 100.0 %
Test CRC 139E5BE3
Copy CRC 139E5BE3
Accurately ripped (confidence 2) [F9C055A0]
Copy OK
All tracks accurately ripped
No errors occurred
End of status report
==== Log checksum 7E100706558D0B10FA23C1F1B40B62F939415D79E48A80C5C2084456981BF63D ====

CUE

REM GENRE Classical
REM DATE 2007
REM DISCID C20D560E
REM COMMENT "ExactAudioCopy v1.0b1"
PERFORMER "Katherine Jenkins"
TITLE "From The Heart"
FILE "01 - Nella Fantasia.wav" WAVE
TRACK 01 AUDIO
TITLE "Nella Fantasia"
PERFORMER "Katherine Jenkins"
INDEX 01 00:00:00
FILE "02 - (Quello Che Faro) Sara Per Te, (Everything I Do) I Do It For You.wav" WAVE
TRACK 02 AUDIO
TITLE "(Quello Che Faro) Sara Per Te / (Everything I Do) I Do It For You"
PERFORMER "Katherine Jenkins"
INDEX 01 00:00:00
FILE "03 - Time To Say Goodbye, Con Te Partiro.wav" WAVE
TRACK 03 AUDIO
TITLE "Time To Say Goodbye / Con Te Partiro"
PERFORMER "Katherine Jenkins"
INDEX 01 00:00:00
TRACK 04 AUDIO
TITLE "The Flower Duet (feat. Dame Kiri Te Kanawa)"
PERFORMER "Katherine Jenkins"
INDEX 00 03:59:02
FILE "04 - The Flower Duet (feat. Dame Kiri Te Kanawa).wav" WAVE
INDEX 01 00:00:00
TRACK 05 AUDIO
TITLE "Caruso"
PERFORMER "Katherine Jenkins"
INDEX 00 03:50:70
FILE "05 - Caruso.wav" WAVE
INDEX 01 00:00:00
FILE "06 - Nessun Dorma.wav" WAVE
TRACK 06 AUDIO
TITLE "Nessun Dorma"
PERFORMER "Katherine Jenkins"
INDEX 01 00:00:00
FILE "07 - L'Amore Sei Tu (I Will Always Love You).wav" WAVE
TRACK 07 AUDIO
TITLE "L'Amore Sei Tu (I Will Always Love You)"
PERFORMER "Katherine Jenkins"
INDEX 01 00:00:00
FILE "08 - Vide Cor Meum.wav" WAVE
TRACK 08 AUDIO
TITLE "Vide Cor Meum"
PERFORMER "Katherine Jenkins"
INDEX 01 00:00:00
FILE "09 - The Prayer.wav" WAVE
TRACK 09 AUDIO
TITLE "The Prayer"
PERFORMER "Katherine Jenkins"
INDEX 01 00:00:00
TRACK 10 AUDIO
TITLE "Il Canto"
PERFORMER "Katherine Jenkins"
INDEX 00 04:37:26
FILE "10 - Il Canto.wav" WAVE
INDEX 01 00:00:00
TRACK 11 AUDIO
TITLE "Chanson Boheme"
PERFORMER "Katherine Jenkins"
INDEX 00 03:28:58
FILE "11 - Chanson Boheme.wav" WAVE
INDEX 01 00:00:00
TRACK 12 AUDIO
TITLE "Hymn To The Fallen"
PERFORMER "Katherine Jenkins"
INDEX 00 04:16:11
FILE "12 - Hymn To The Fallen.wav" WAVE
INDEX 01 00:00:00
TRACK 13 AUDIO
TITLE "Canto Della Terra"
PERFORMER "Katherine Jenkins"
INDEX 00 04:30:43
FILE "13 - Canto Della Terra.wav" WAVE
INDEX 01 00:00:00
TRACK 14 AUDIO
TITLE "Cinema Paradiso (Se)"
PERFORMER "Katherine Jenkins"
INDEX 00 04:02:13
FILE "14 - Cinema Paradiso (Se).wav" WAVE
INDEX 01 00:00:00

2009 - The Ultimate Collection

01 - Time To Say Goodbye (03:46)
02 - Hallelujah (04:47)
03 - I Will Always Love You (04:21)
04 - I Vow To Thee My Country (03:08)
05 - (Everything I Do) I Do It For You (04:16)
06 - Nella Fantasia (05:09)
07 - Hymn To The Fallen (04:31)
08 - The Flower Duet (03:50)
09 - Pie Jesu (03:39)
10 - Calon Lan (02:27)
11 - Caruso (03:52)
12 - Vide Cor Meum (04:01)
13 - O Mio Babbino Caro (02:37)
14 - Music Of The Night (05:46)
15 - I Could Have Danced All Night (02:34)
16 - I've Dreamed Of You (03:36)
17 - Don't Cry For Me Argentina (06:17)
Продолжительность: 01:08:36

LOG

Exact Audio Copy V0.99 prebeta 4 from 23. January 2008
EAC extraction logfile from 10. August 2010, 22:58
Katherine Jenkins / The Ultimate Collection
Used drive : HL-DT-STDVDRAM GSA-T20N Adapter: 1 ID: 0
Read mode : Secure
Utilize accurate stream : Yes
Defeat audio cache : Yes
Make use of C2 pointers : No
Read offset correction : 667
Overread into Lead-In and Lead-Out : No
Fill up missing offset samples with silence : Yes
Delete leading and trailing silent blocks : No
Null samples used in CRC calculations : Yes
Used interface : Installed external ASPI interface
Gap handling : Appended to previous track
Used output format : User Defined Encoder
Selected bitrate : 768 kBit/s
Quality : High
Add ID3 tag : No
Command line compressor : C:\Program Files\FLAC\flac.exe
Additional command line options : -8 -V -T "artist=%a" -T "title=%t" -T "album=%g" -T "date=%y" -T "tracknumber=%n" -T "genre=%m" %s
TOC of the extracted CD
Track | Start | Length | Start sector | End sector
---------------------------------------------------------
1 | 0:00.00 | 3:46.36 | 0 | 16985
2 | 3:46.36 | 4:47.16 | 16986 | 38526
3 | 8:33.52 | 4:20.62 | 38527 | 58088
4 | 12:54.39 | 3:07.63 | 58089 | 72176
5 | 16:02.27 | 4:15.47 | 72177 | 91348
6 | 20:17.74 | 5:08.56 | 91349 | 114504
7 | 25:26.55 | 4:30.66 | 114505 | 134820
8 | 29:57.46 | 3:50.26 | 134821 | 152096
9 | 33:47.72 | 3:38.44 | 152097 | 168490
10 | 37:26.41 | 2:27.35 | 168491 | 179550
11 | 39:54.01 | 3:51.51 | 179551 | 196926
12 | 43:45.52 | 4:01.03 | 196927 | 215004
13 | 47:46.55 | 2:37.25 | 215005 | 226804
14 | 50:24.05 | 5:46.30 | 226805 | 252784
15 | 56:10.35 | 2:33.38 | 252785 | 264297
16 | 58:43.73 | 3:36.30 | 264298 | 280527
17 | 62:20.28 | 6:16.44 | 280528 | 308771
Track 1
Filename C:\ista\01 - Katherine Jenkins - Time To Say Goodbye.wav
Pre-gap length 0:00:02.00
Peak level 98.8 %
Track quality 99.9 %
Test CRC 5B8525B1
Copy CRC 5B8525B1
Accurately ripped (confidence 5) [FBCC1DE2]
Copy OK
Track 2
Filename C:\ista\02 - Katherine Jenkins - Hallelujah.wav
Peak level 99.3 %
Track quality 99.9 %
Test CRC 80A0A1D1
Copy CRC 80A0A1D1
Accurately ripped (confidence 5) [A93BDDFC]
Copy OK
Track 3
Filename C:\ista\03 - Katherine Jenkins - I Will Always Love You.wav
Peak level 98.6 %
Track quality 100.0 %
Test CRC CE683717
Copy CRC CE683717
Accurately ripped (confidence 5) [E9E7FDBA]
Copy OK
Track 4
Filename C:\ista\04 - Katherine Jenkins - I Vow To Thee My Country.wav
Peak level 98.6 %
Track quality 100.0 %
Test CRC 1CC3BD46
Copy CRC 1CC3BD46
Accurately ripped (confidence 5) [84FBE6B4]
Copy OK
Track 5
Filename C:\ista\05 - Katherine Jenkins - (Everything I Do) I Do It For You.wav
Peak level 99.3 %
Track quality 100.0 %
Test CRC B3B68273
Copy CRC B3B68273
Accurately ripped (confidence 5) [F5C9B7D3]
Copy OK
Track 6
Filename C:\ista\06 - Katherine Jenkins - Nella Fantasia.wav
Peak level 99.3 %
Track quality 100.0 %
Test CRC 5E91925B
Copy CRC 5E91925B
Accurately ripped (confidence 5) [B23A985B]
Copy OK
Track 7
Filename C:\ista\07 - Katherine Jenkins - Hymn To The Fallen.wav
Peak level 98.8 %
Track quality 100.0 %
Test CRC 52A2D96C
Copy CRC 52A2D96C
Accurately ripped (confidence 5) [4296D9C0]
Copy OK
Track 8
Filename C:\ista\08 - Katherine Jenkins - The Flower Duet.wav
Peak level 99.3 %
Track quality 100.0 %
Test CRC 12F76695
Copy CRC 12F76695
Accurately ripped (confidence 5) [AB2976A3]
Copy OK
Track 9
Filename C:\ista\09 - Katherine Jenkins - Pie Jesu.wav
Peak level 99.3 %
Track quality 100.0 %
Test CRC 7892B689
Copy CRC 7892B689
Accurately ripped (confidence 5) [D73C424C]
Copy OK
Track 10
Filename C:\ista\10 - Katherine Jenkins - Calon Lan.wav
Peak level 98.8 %
Track quality 100.0 %
Test CRC 780A3C4F
Copy CRC 780A3C4F
Accurately ripped (confidence 5) [E329E292]
Copy OK
Track 11
Filename C:\ista\11 - Katherine Jenkins - Caruso.wav
Peak level 98.8 %
Track quality 100.0 %
Test CRC 77A0D81B
Copy CRC 77A0D81B
Accurately ripped (confidence 5) [CCC8FBF8]
Copy OK
Track 12
Filename C:\ista\12 - Katherine Jenkins - Vide Cor Meum.wav
Peak level 95.2 %
Track quality 100.0 %
Test CRC 516E3E10
Copy CRC 516E3E10
Accurately ripped (confidence 5) [F3313087]
Copy OK
Track 13
Filename C:\ista\13 - Katherine Jenkins - O Mio Babbino Caro.wav
Peak level 100.0 %
Track quality 100.0 %
Test CRC C793423B
Copy CRC C793423B
Accurately ripped (confidence 5) [6D07D337]
Copy OK
Track 14
Filename C:\ista\14 - Katherine Jenkins - Music Of The Night.wav
Peak level 97.4 %
Track quality 100.0 %
Test CRC 8710E1A2
Copy CRC 8710E1A2
Accurately ripped (confidence 5) [6F1BCFE8]
Copy OK
Track 15
Filename C:\ista\15 - Katherine Jenkins - I Could Have Danced All Night.wav
Peak level 99.9 %
Track quality 100.0 %
Test CRC CD99DB0A
Copy CRC CD99DB0A
Accurately ripped (confidence 5) [520EC2A1]
Copy OK
Track 16
Filename C:\ista\16 - Katherine Jenkins - I've Dreamed Of You.wav
Peak level 98.7 %
Track quality 100.0 %
Test CRC 91904E0A
Copy CRC 91904E0A
Accurately ripped (confidence 5) [B9CA2577]
Copy OK
Track 17
Filename C:\ista\17 - Katherine Jenkins - Don't Cry For Me Argentina.wav
Peak level 99.9 %
Track quality 99.9 %
Test CRC A582E1AA
Copy CRC A582E1AA
Accurately ripped (confidence 5) [E82F596A]
Copy OK
All tracks accurately ripped
No errors occurred
End of status report

CUE

REM GENRE Classical
REM DATE 2009
REM DISCID 0B101411
REM COMMENT "ExactAudioCopy v0.99pb4"
PERFORMER "Katherine Jenkins"
TITLE "The Ultimate Collection"
FILE "01 - Time To Say Goodbye.wav" WAVE
TRACK 01 AUDIO
TITLE "Time To Say Goodbye"
PERFORMER "Katherine Jenkins"
INDEX 01 00:00:00
FILE "02 - Hallelujah.wav" WAVE
TRACK 02 AUDIO
TITLE "Hallelujah"
PERFORMER "Katherine Jenkins"
INDEX 01 00:00:00
FILE "03 - I Will Always Love You.wav" WAVE
TRACK 03 AUDIO
TITLE "I Will Always Love You"
PERFORMER "Katherine Jenkins"
INDEX 01 00:00:00
FILE "04 - I Vow To Thee My Country.wav" WAVE
TRACK 04 AUDIO
TITLE "I Vow To Thee My Country"
PERFORMER "Katherine Jenkins"
INDEX 01 00:00:00
FILE "05 - (Everything I Do) I Do It For You.wav" WAVE
TRACK 05 AUDIO
TITLE "(Everything I Do) I Do It For You"
PERFORMER "Katherine Jenkins"
INDEX 01 00:00:00
FILE "06 - Nella Fantasia.wav" WAVE
TRACK 06 AUDIO
TITLE "Nella Fantasia"
PERFORMER "Katherine Jenkins"
INDEX 01 00:00:00
FILE "07 - Hymn To The Fallen.wav" WAVE
TRACK 07 AUDIO
TITLE "Hymn To The Fallen"
PERFORMER "Katherine Jenkins"
INDEX 01 00:00:00
FILE "08 - The Flower Duet.wav" WAVE
TRACK 08 AUDIO
TITLE "The Flower Duet"
PERFORMER "Katherine Jenkins"
INDEX 01 00:00:00
FILE "09 - Pie Jesu.wav" WAVE
TRACK 09 AUDIO
TITLE "Pie Jesu"
PERFORMER "Katherine Jenkins"
INDEX 01 00:00:00
FILE "10 - Calon Lan.wav" WAVE
TRACK 10 AUDIO
TITLE "Calon Lan"
PERFORMER "Katherine Jenkins"
INDEX 01 00:00:00
FILE "11 - Caruso.wav" WAVE
TRACK 11 AUDIO
TITLE "Caruso"
PERFORMER "Katherine Jenkins"
INDEX 01 00:00:00
FILE "12 - Vide Cor Meum.wav" WAVE
TRACK 12 AUDIO
TITLE "Vide Cor Meum"
PERFORMER "Katherine Jenkins"
INDEX 01 00:00:00
FILE "13 - O Mio Babbino Caro.wav" WAVE
TRACK 13 AUDIO
TITLE "O Mio Babbino Caro"
PERFORMER "Katherine Jenkins"
INDEX 01 00:00:00
FILE "14 - Music Of The Night.wav" WAVE
TRACK 14 AUDIO
TITLE "Music Of The Night"
PERFORMER "Katherine Jenkins"
INDEX 01 00:00:00
FILE "15 - I Could Have Danced All Night.wav" WAVE
TRACK 15 AUDIO
TITLE "I Could Have Danced All Night"
PERFORMER "Katherine Jenkins"
INDEX 01 00:00:00
FILE "16 - I've Dreamed Of You.wav" WAVE
TRACK 16 AUDIO
TITLE "I've Dreamed Of You"
PERFORMER "Katherine Jenkins"
INDEX 01 00:00:00
FILE "17 - Don't Cry For Me Argentina.wav" WAVE
TRACK 17 AUDIO
TITLE "Don't Cry For Me Argentina"
PERFORMER "Katherine Jenkins"
INDEX 01 00:00:00
-



Показать сообщения:    

Текущее время: 06-Дек 11:15

Часовой пояс: UTC + 3


Вы не можете начинать темы
Вы не можете отвечать на сообщения
Вы не можете редактировать свои сообщения
Вы не можете удалять свои сообщения
Вы не можете голосовать в опросах
Вы не можете прикреплять файлы к сообщениям
Вы не можете скачивать файлы