Дуэль и смерть Пушкина. Развенчание мифов. (Алла Чикичева) [2008, документальный, DVDRip]


Статистика раздачи [Обновить пиров]
Размер:  385 MB   |    Зарегистрирован:  8 месяцев 26 дней   |    Скачан:  0 раз

Полного источника не было: Никогда

 
   
 
 
 

[Цитировать]

Дуэль и смерть Пушкина. Развенчание мифов.--
---Год выпуска: 2008
Производство: Россия / Телеканал 100ТВ
Жанр: документальный
Продолжительность: 00:26:36
Перевод: Не требуется
Русские субтитры: нет
Режиссер: Алла Чикичева
Описание: Дуэль и смерть Пушкина породили множество мифов. Одни возникали и исчезали, другие оказывались весьма устойчивыми, несмотря ни на какие доказательства. Была ли Натали Пушкина верна мужу? Почему Дантес, известный своими нетрадиционными сексуальными пристрастиями, увлекся женой поэта? Была ли сестра Натали Александрина любовницей Пушкина? Барон Геккерен имел гомосексуальную связь со своим приёмным сыном Дантесом. Чтобы скрыть это, надо было завести роман с какой-нибудь замужней дамой. Выбор пал на Наталью Гончарову, жену Пушкина. Мнения экспертов, историков, сотрудников Всероссийского музея А.С. Пушкина.

MI

General
Format : Matroska
File size : 385 MiB
Duration : 26mn 36s
Overall bit rate : 2 024 Kbps
Encoded date : UTC 2011-04-13 16:38:32
Writing application : mkvmerge v4.5.0 ('Speed of Light') сборка от Feb 15 2011 12:50:20
Writing library : libebml v1.2.0 + libmatroska v1.1.0
Video
ID : 1
Format : AVC
Format/Info : Advanced Video Codec
Format profile : Main@L4.0
Format settings, CABAC : Yes
Format settings, ReFrames : 16 frames
Codec ID : V_MPEG4/ISO/AVC
Duration : 26mn 36s
Bit rate : 1 829 Kbps
Width : 704 pixels
Height : 528 pixels
Display aspect ratio : 4:3
Frame rate : 25.000 fps
Color space : YUV
Chroma subsampling : 4:2:0
Bit depth : 8 bits
Scan type : Progressive
Bits/(Pixel*Frame) : 0.197
Stream size : 341 MiB (89%)
Writing library : x264 core 114 r1913 5fd3dce
Encoding settings : cabac=1 / ref=16 / deblock=1:-1:-1 / analyse=0x1:0x131 / me=umh / subme=10 / psy=1 / psy_rd=1.00:0.10 / mixed_ref=1 / me_range=24 / chroma_me=1 / trellis=2 / 8x8dct=0 / cqm=0 / deadzone=21,11 / fast_pskip=1 / chroma_qp_offset=-3 / threads=3 / sliced_threads=0 / nr=0 / decimate=1 / interlaced=0 / constrained_intra=0 / bframes=8 / b_pyramid=2 / b_adapt=2 / b_bias=0 / direct=3 / weightb=1 / open_gop=0 / weightp=2 / keyint=250 / keyint_min=25 / scenecut=40 / intra_refresh=0 / rc_lookahead=60 / rc=2pass / mbtree=1 / bitrate=1829 / ratetol=1.0 / qcomp=0.60 / qpmin=0 / qpmax=69 / qpstep=4 / cplxblur=20.0 / qblur=0.5 / ip_ratio=1.40 / aq=1:1.00
Audio
ID : 2
Format : AC-3
Format/Info : Audio Coding 3
Mode extension : CM (complete main)
Codec ID : A_AC3
Duration : 26mn 36s
Bit rate mode : Constant
Bit rate : 192 Kbps
Channel(s) : 2 channels
Channel positions : Front: L R
Sampling rate : 48.0 KHz
Bit depth : 16 bits
Stream size : 36.5 MiB (9%)

Качество : DVDRip
Формат: MKV
Видео кодек: H.264
Аудио кодек: AC3
Видео: AVC, 704x528, 4:3, 1 829 Kbps, 25.000 fps
Аудио: AC-3, 192 Kbps, 48.0 KHz, 2 channels
-

Скриншоты

- - - - -
-
[teatrix.ru].t16000.torrent 
Торрент: Зарегистрирован [ 2016-03-15 12:09 ] · CB82F17A486B1675B035634A8C9DB75E10E26A75

Скачать .torrent

Скачать

16 KB

Статус: проверено
Скачан: 0 раз
Размер: 385 MB
terms.php



Быстрый ответ

Имя:

      
Для отправки сообщений необходимо включить JavaScript
Показать сообщения:    

Текущее время: 11-Дек 03:18

Часовой пояс: UTC + 3


Вы можете начинать темы
Вы можете отвечать на сообщения
Вы не можете редактировать свои сообщения
Вы не можете удалять свои сообщения
Вы не можете голосовать в опросах
Вы не можете прикреплять файлы к сообщениям
Вы можете скачивать файлы