(Classical, pop, crossover) Katherine Jenkins - Premiere - 2004, FLAC (tracks+.cue), lossless


 

[Цитировать]

Katherine Jenkins - Premiere- Жанр: Classical, pop, crossover
Год выпуска диска: 2004
Производитель диска: UK
Аудио кодек: FLACТип рипа: tracks+.cue
Битрейт аудио: lossless
Продолжительность: 45 мин.
Источник: CD-DA диск, собственный рип.
Треклист:
01. Questo E Per Te (03:40)
02. The Ash Grove (03:10)
03. Ave Maria (03:02)
04. Bailero (02:53)
05. The Lord Is My Shepherd (04:23)
06. Ar Lan Y Mor (02:31)
07. Sweetest Love (04:00)
08. Habanera (02:49)
09. Cymru Fach (03:55)
10. Caro Mio Ben (02:15)
11. Lascia Ch'io Pianga (03:15)
12. Miserere (03:55)
13. Absence (03:02)
14. Cym Rhondda (02:48)

CUE

;--[ Created by Medieval CUE Splitter! ]--
;
;-----------[ www.medieval.it ]-----------
;
REM GENRE Crossover
REM DATE 2004
REM DISCID C10AB60E
REM COMMENT "ExactAudioCopy v0.99pb5"
TITLE Premiere
PERFORMER "Katherine Jenkins"
CATALOG 0602498660645
FILE "01. Questo e per te.flac" WAVE
TRACK 01 AUDIO
TITLE "Questo e per te"
PERFORMER "Katherine Jenkins"
ISRC GBEKZ0300202
INDEX 01 00:00:00
FILE "02. The Ash Grove.flac" WAVE
TRACK 02 AUDIO
TITLE "The Ash Grove"
PERFORMER "Katherine Jenkins"
ISRC GBEKZ0300205
PREGAP 00:01:68
INDEX 01 00:00:00
FILE "03. Ave Maria.flac" WAVE
TRACK 03 AUDIO
TITLE "Ave Maria"
PERFORMER "Katherine Jenkins"
ISRC GBEKZ0300210
PREGAP 00:01:12
INDEX 01 00:00:00
FILE "04. Bailero.flac" WAVE
TRACK 04 AUDIO
TITLE Bailero
PERFORMER "Katherine Jenkins"
ISRC GBEKZ0300200
PREGAP 00:01:24
INDEX 01 00:00:00
FILE "05. The Lord Is My Shepherd.flac" WAVE
TRACK 05 AUDIO
TITLE "The Lord Is My Shepherd"
PERFORMER "Katherine Jenkins"
ISRC GBEKZ0300207
PREGAP 00:02:30
INDEX 01 00:00:00
FILE "06. Ar Lan Y Mor.flac" WAVE
TRACK 06 AUDIO
TITLE "Ar Lan Y Mor"
PERFORMER "Katherine Jenkins"
ISRC GBEKZ0300203
PREGAP 00:00:57
INDEX 01 00:00:00
FILE "07. Sweetest Love.flac" WAVE
TRACK 07 AUDIO
TITLE "Sweetest Love"
PERFORMER "Katherine Jenkins"
ISRC GBEKZ0300199
PREGAP 00:02:05
INDEX 01 00:00:00
FILE "08. Habanera.flac" WAVE
TRACK 08 AUDIO
TITLE Habanera
PERFORMER "Katherine Jenkins"
ISRC GBEKZ0300209
PREGAP 00:02:38
INDEX 01 00:00:00
FILE "09. Cymru Fach.flac" WAVE
TRACK 09 AUDIO
TITLE "Cymru Fach"
PERFORMER "Katherine Jenkins"
ISRC GBEKZ0300208
PREGAP 00:01:53
INDEX 01 00:00:00
FILE "10. Caro Mio Ben.flac" WAVE
TRACK 10 AUDIO
TITLE "Caro Mio Ben"
PERFORMER "Katherine Jenkins"
ISRC GBEKZ0300201
PREGAP 00:00:74
INDEX 01 00:00:00
FILE "11. Lascia Ch'io Pianga.flac" WAVE
TRACK 11 AUDIO
TITLE "Lascia Ch'io Pianga"
PERFORMER "Katherine Jenkins"
ISRC GBEKZ0400001
PREGAP 00:01:11
INDEX 01 00:00:00
FILE "12. Miserere.flac" WAVE
TRACK 12 AUDIO
TITLE Miserere
PERFORMER "Katherine Jenkins"
ISRC GBEKZ0300206
PREGAP 00:00:72
INDEX 01 00:00:00
FILE "13. Absence.flac" WAVE
TRACK 13 AUDIO
TITLE Absence
PERFORMER "Katherine Jenkins"
ISRC GBEKZ0300204
PREGAP 00:01:64
INDEX 01 00:00:00
FILE "14. Cym Rhondda.flac" WAVE
TRACK 14 AUDIO
TITLE "Cym Rhondda"
PERFORMER "Katherine Jenkins"
ISRC GBEKZ0300087
PREGAP 00:02:21
INDEX 01 00:00:00

Audiochecker log

AUDIOCHECKER v2.0 beta (build 457) - by Dester - opdester@freemail.hu
~~~~~~~~~~~~~~~~~~~~~~~~~~~~~~~~~~
Started at: âòîðíèê, 07. 06. 2011. - 22:18.06
14 files found
01 -===- C:\88\Katherine Jenkins - Premiere - Flac\01. Questo e per te.flac
Extracted successfully
Conclusion: this track is CDDA with probability 100%
Tempfile successfully deleted.
02 -===- C:\88\Katherine Jenkins - Premiere - Flac\02. The Ash Grove.flac
Extracted successfully
Conclusion: this track is CDDA with probability 100%
Tempfile successfully deleted.
03 -===- C:\88\Katherine Jenkins - Premiere - Flac\03. Ave Maria.flac
Extracted successfully
Conclusion: this track is CDDA with probability 100%
Tempfile successfully deleted.
04 -===- C:\88\Katherine Jenkins - Premiere - Flac\04. Bailero.flac
Extracted successfully
Conclusion: this track is CDDA with probability 100%
Tempfile successfully deleted.
05 -===- C:\88\Katherine Jenkins - Premiere - Flac\05. The Lord Is My Shepherd.flac
Extracted successfully
Conclusion: this track is CDDA with probability 100%
Tempfile successfully deleted.
06 -===- C:\88\Katherine Jenkins - Premiere - Flac\06. Ar Lan Y Mor.flac
Extracted successfully
Conclusion: this track is CDDA with probability 100%
Tempfile successfully deleted.
07 -===- C:\88\Katherine Jenkins - Premiere - Flac\07. Sweetest Love.flac
Extracted successfully
Conclusion: this track is CDDA with probability 100%
Tempfile successfully deleted.
08 -===- C:\88\Katherine Jenkins - Premiere - Flac\08. Habanera.flac
Extracted successfully
Conclusion: this track is CDDA with probability 100%
Tempfile successfully deleted.
09 -===- C:\88\Katherine Jenkins - Premiere - Flac\09. Cymru Fach.flac
Extracted successfully
Conclusion: this track is CDDA with probability 100%
Tempfile successfully deleted.
10 -===- C:\88\Katherine Jenkins - Premiere - Flac\10. Caro Mio Ben.flac
Extracted successfully
Conclusion: this track is CDDA with probability 100%
Tempfile successfully deleted.
11 -===- C:\88\Katherine Jenkins - Premiere - Flac\11. Lascia Ch'io Pianga.flac
Extracted successfully
Conclusion: this track is CDDA with probability 100%
Tempfile successfully deleted.
12 -===- C:\88\Katherine Jenkins - Premiere - Flac\12. Miserere.flac
Extracted successfully
Conclusion: this track is CDDA with probability 100%
Tempfile successfully deleted.
13 -===- C:\88\Katherine Jenkins - Premiere - Flac\13. Absence.flac
Extracted successfully
Conclusion: this track is CDDA with probability 99%
Tempfile successfully deleted.
14 -===- C:\88\Katherine Jenkins - Premiere - Flac\14. Cym Rhondda.flac
Extracted successfully
Conclusion: this track is CDDA with probability 100%
Tempfile successfully deleted.
Finished at: âòîðíèê, 07. 06. 2011. - 22:33.37 (operation time: 0:15.30)



Показать сообщения:    

Текущее время: 04-Дек 09:05

Часовой пояс: UTC + 3


Вы не можете начинать темы
Вы не можете отвечать на сообщения
Вы не можете редактировать свои сообщения
Вы не можете удалять свои сообщения
Вы не можете голосовать в опросах
Вы не можете прикреплять файлы к сообщениям
Вы не можете скачивать файлы