Кто убил Чайковского? / Omnibus: Who Killed Tchaikovsky? (Джон Пюрди / John Purdie) [1993, документальный, драма, гей-тема, DVB] VO (АртМедиа Групп)


Статистика раздачи [Обновить пиров]
Размер:  802 MB   |    Зарегистрирован:  8 месяцев 19 дней   |    Скачан:  0 раз

Полного источника не было: Никогда

Личеров:  3  [  0 KB/s  ]   Подробная статистика пиров
 
   
 
 
 

[Цитировать]

Кто убил Чайковского?
Omnibus: Who Killed Tchaikovsky?- Год выпуска: 1993
Страна: Великобритания
Жанр: документальный, драма, гей-тема
Продолжительность: 00:49:02
Перевод: Профессиональный (одноголосый) (озвучено "АртМедиа Групп" по заказу канала 24ДОК: автор русского перевода Наталья Смирнова, текст читает Станислав Стрелков)
Русские субтитры: нет
Режиссер: Джон Пюрди / John Purdie
Описание: Фильм снят к 100-летию со дня смерти Чайковского. Тайна смерти композитора на протяжении века рождает все новые противоречивые исследования. Вот и британские кинематографисты предприняли собственное расследование тайны смерти Чайковского в фильме из телевизионного цикла BBC: OMNIBUS. В нем будут подробно рассмотрены две основные версии: заболевание холерой и самоубийство. Но в обоих случаях это были лишь способы смерти. Было ли то исполнение приговора Суда Чести или невозможность дальнейшей внутренней борьбы, причина крылась в несомненной гомосексуальности Петра Ильича Чайковского.
Доп. информация: запись со спутника (канал 24ДОК). По сравнению с раздачей SATRip фильм представлен полностью, в SATRip отсутствует первая минута фильма. Передача в 2009 году вышла на DVD в качестве бонуса к фильму "Чайковский: Трагическая жизнь гения музыки" (2007)
.Информация о фильме: http://ftvdb.bfi.org.uk/sift/title/501362
Качество: DVB
Формат: TS
Видео кодек: MPEG2
Аудио кодек: MP2
Видео: MPEG2, PAL 704х576@768x576 (4:3), 25 fps, ~1966 kbps
Аудио: Русский (48 kHz, MPEG Audio 2, 2 ch, ~192.00 kbps avg)

Bitrate Viewer

MediaInfo

Полное имя : H:\My Torrents\[apreder]Who_Killed_Tchaikovsky(1993)DVB.ts
Формат : MPEG-TS
Размер файла : 802 Мбайт
Продолжительность : 49 м.
Общий поток : 2285 Кбит/сек
Видео
Идентификатор : 224 (0xE0)
Идентификатор меню : 258 (0x102)
Формат : MPEG Video
Версия формата : Version 2
Профиль формата : Main@Main
Параметр BVOP формата : Да
Параметр матрицы формата : По умолчанию
Параметры GOP формата : M=3, N=24
Идентификатор кодека : 2
Продолжительность : 49 м.
Вид битрейта : Переменный
Битрейт : 1978 Кбит/сек
Номинальный битрейт : 15,0 Мбит/сек
Ширина : 704 пикс.
Высота : 576 пикс.
Соотношение сторон : 4:3
Частота кадров : 25,000 кадр/сек
Стандарт вещания : PAL
Цветовое пространство : YUV
Подвыборка цветности : 4:2:0
Битовая глубина : 8 бит
Тип развёртки : Прогрессивная
Порядок развёртки : Верхнее поле первое
Метод сжатия : С потерями
Бит/(Пиксели*Кадры) : 0.195
Размер потока : 694 Мбайт (87%)
Аудио
Идентификатор : 192 (0xC0)
Идентификатор меню : 258 (0x102)
Формат : MPEG Audio
Версия формата : Version 1
Профиль формата : Layer 2
Идентификатор кодека : 3
Продолжительность : 49 м.
Вид битрейта : Постоянный
Битрейт : 192 Кбит/сек
Каналы : 2 канала
Частота : 48,0 КГц
Метод сжатия : С потерями
Задержка видео : -258 мс.
Размер потока : 67,3 Мбайт (8%)

Обложки

[teatrix.ru].t16038.torrent 
Торрент: Зарегистрирован [ 2016-03-15 12:52 ] · 67E7CE2745302D65115CF515F9CEB0FA5319F28B

Скачать .torrent

Скачать

16 KB

Статус: проверено
Скачан: 0 раз
Размер: 802 MB
terms.php



Быстрый ответ

Имя:

      
Для отправки сообщений необходимо включить JavaScript
Показать сообщения:    

Текущее время: 03-Дек 14:39

Часовой пояс: UTC + 3


Вы можете начинать темы
Вы можете отвечать на сообщения
Вы не можете редактировать свои сообщения
Вы не можете удалять свои сообщения
Вы не можете голосовать в опросах
Вы не можете прикреплять файлы к сообщениям
Вы можете скачивать файлы