(Vocal) Placido Domingo при участии Bebu Silvetti - Коллекция (6CD) - 1994-2010, FLAC (image+.cue), lossless


 

[Цитировать]

Placido Domingo при участии Bebu Silvetti - Коллекция (6CD)
Год выпуска дисков : 1994-2010
Производитель диска : EU / USA / Japan
Аудио кодек : FLAC
Тип рипа : image+.cue (Test & Copy + Accurate Rip)
Битрейт аудио : lossless
Лейбл : EMI / Sony Classical / WEA
Источник (релизер): Рипы оригинальных дисков из личной коллекции
Сканы: 600dpi, PNG
Дата релиза: 13 июля 2011 года
Обновление: 2 января 2012 года
О раздаче: Коллекция альбомов великого тенора Пласидо Доминго с участием "короля струнных" Бебу Сильветти. Выложены 6 альбомов из семи ими записанных вместе. Когда последнее обновление пока не знаю.
1994 - De mi alma latina Год выпуска диска : 1994
Производитель диска : США
Аудио кодек : FLAC
Тип рипа : image+.cue (Test & Copy)
Битрейт аудио : lossless
Продолжительность : 1:13:33
Лейбл : EMI
Каталожный номер : 724355526328
Источник (релизер): Рип оригинального диска из личной коллекции
Сканы: прилагаются

01. Aquellos ojos verdes
02. La flor de la canela; Que nadie sepa mi sufrir; Amarraditos
03. Nosotros; Contigo; Sin tí (con Ana Gabriel)
04. De México a Buenos Aires
05. Se me olvidó otra vez (con Daniela Romo)
06. El Humahuaqueño; Caballo viejo; Moliendo café
07. Delirio; Alma llanera
08. Solamente una vez; Veracruz; Noche de ronda
09. Manhâ de carnaval; Aquarela do Brasil
10. Sabrás que te quiero
11. Alfonsina y el mar; Gracias a la vida (con Patricia Sosa)
12. Lamento borincano; Vereda tropical
13. Como ayer
14. Perfidia; Frenesí; La última noche (con Pandora)
15. Adiós
16. Por amor; Así como te buscaba; Yo vendo unos ojos negros
-Дополнительная информация: Первый совместный альбом Пласидо и Бебу, номинировался на Грэмми. Куплено в Пурпурном легионе.-

Лог создания рипа

Exact Audio Copy V1.0 beta 2 from 29. April 2011
EAC extraction logfile from 12. July 2011, 20:42
Placido Domingo / De mi alma latina
Used drive : TSSTcorpCDDVDW SN-S082N Adapter: 3 ID: 0
Read mode : Secure
Utilize accurate stream : Yes
Defeat audio cache : Yes
Make use of C2 pointers : No
Read offset correction : 6
Overread into Lead-In and Lead-Out : No
Fill up missing offset samples with silence : Yes
Delete leading and trailing silent blocks : No
Null samples used in CRC calculations : Yes
Used interface : Native Win32 interface for Win NT & 2000
Used output format : Internal WAV Routines
Sample format : 44.100 Hz; 16 Bit; Stereo
TOC of the extracted CD
Track | Start | Length | Start sector | End sector
---------------------------------------------------------
1 | 0:00.32 | 3:51.60 | 32 | 17416
2 | 3:52.17 | 5:02.13 | 17417 | 40079
3 | 8:54.30 | 5:45.35 | 40080 | 65989
4 | 14:39.65 | 3:06.57 | 65990 | 79996
5 | 17:46.47 | 3:34.13 | 79997 | 96059
6 | 21:20.60 | 4:11.30 | 96060 | 114914
7 | 25:32.15 | 4:55.40 | 114915 | 137079
8 | 30:27.55 | 5:59.45 | 137080 | 164049
9 | 36:27.25 | 8:18.17 | 164050 | 201416
10 | 44:45.42 | 3:40.18 | 201417 | 217934
11 | 48:25.60 | 4:53.27 | 217935 | 239936
12 | 53:19.12 | 4:34.70 | 239937 | 260556
13 | 57:54.07 | 3:35.05 | 260557 | 276686
14 | 61:29.12 | 4:31.33 | 276687 | 297044
15 | 66:00.45 | 3:36.62 | 297045 | 313306
16 | 69:37.32 | 3:55.13 | 313307 | 330944
Range status and errors
Selected range
Filename D:\VOLUME 2\Placido Domingo & Bebu Silvetti - CD Collection (1994-2010)\Placido Domingo - De mi alma latina (1994)\Placido Domingo - De mi alma latina.wav
Peak level 100.0 %
Extraction speed 1.4 X
Range quality 99.9 %
Test CRC C1AC624A
Copy CRC C1AC624A
Copy OK
No errors occurred
AccurateRip summary
Track 1 accurately ripped (confidence 3) [2EAB196B] (AR v1)
Track 2 accurately ripped (confidence 2) [878EEBBA] (AR v1)
Track 3 accurately ripped (confidence 3) [5ABCA376] (AR v1)
Track 4 accurately ripped (confidence 2) [4C47B3D8] (AR v1)
Track 5 accurately ripped (confidence 3) [1891935C] (AR v1)
Track 6 accurately ripped (confidence 3) [95D415FD] (AR v1)
Track 7 accurately ripped (confidence 2) [C7FE905E] (AR v1)
Track 8 accurately ripped (confidence 2) [7212F71A] (AR v1)
Track 9 accurately ripped (confidence 2) [6316051A] (AR v1)
Track 10 accurately ripped (confidence 2) [38D05818] (AR v1)
Track 11 accurately ripped (confidence 2) [87BAAF45] (AR v1)
Track 12 accurately ripped (confidence 2) [5AE29FD2] (AR v1)
Track 13 accurately ripped (confidence 2) [48CBE664] (AR v1)
Track 14 accurately ripped (confidence 2) [1CEEF066] (AR v1)
Track 15 accurately ripped (confidence 2) [05E88F5B] (AR v1)
Track 16 accurately ripped (confidence 2) [424B11D0] (AR v1)
All tracks accurately ripped
End of status report
1996 - Bajo el cielo español Год выпуска диска : 1996
Производитель диска : США
Аудио кодек : FLAC
Тип рипа : image+.cue (Test & Copy)
Битрейт аудио : lossless
Продолжительность : 45:11
Лейбл : Sony Classical
Каталожный номер : SK 62625 / 074646262528
Источник (релизер): Рип оригинального диска из личной коллекции
Сканы: прилагаются

01. Granada
02. Clavel sevillano
03. Novillero
04. Murcia
05. Cuerdas de mi guitarra
06. Madrid
07. Fermín
08. Sevilla
09. Españolerias
10. Valencia
11. Silverio
12. Toledo
-Дополнительная информация: Первый альбом посвященный песням Аугустина Лары (второй был Por amor). Более классическое звучание альбома. Сканы буклета в (300dpi, jpg) так как он черно-белый, только тексты песен. Остальные сканы, как обычно (600dpi, png). Куплено на ебее.-

Лог создания рипа

Exact Audio Copy V1.0 beta 2 from 29. April 2011
EAC extraction logfile from 26. September 2011, 9:37
Placido Domingo / Bajo el cielo espanol
Used drive : TSSTcorpCDDVDW TS-L633C Adapter: 2 ID: 0
Read mode : Secure
Utilize accurate stream : Yes
Defeat audio cache : Yes
Make use of C2 pointers : No
Read offset correction : 6
Overread into Lead-In and Lead-Out : No
Fill up missing offset samples with silence : Yes
Delete leading and trailing silent blocks : No
Null samples used in CRC calculations : Yes
Used interface : Native Win32 interface for Win NT & 2000
Used output format : Internal WAV Routines
Sample format : 44.100 Hz; 16 Bit; Stereo
TOC of the extracted CD
Track | Start | Length | Start sector | End sector
---------------------------------------------------------
1 | 0:00.00 | 4:07.05 | 0 | 18529
2 | 4:07.05 | 3:56.30 | 18530 | 36259
3 | 8:03.35 | 3:04.65 | 36260 | 50124
4 | 11:08.25 | 3:25.25 | 50125 | 65524
5 | 14:33.50 | 4:29.55 | 65525 | 85754
6 | 19:03.30 | 3:15.24 | 85755 | 100403
7 | 22:18.54 | 2:38.61 | 100404 | 112314
8 | 24:57.40 | 4:29.67 | 112315 | 132556
9 | 29:27.32 | 4:10.73 | 132557 | 151379
10 | 33:38.30 | 4:33.65 | 151380 | 171919
11 | 38:12.20 | 2:29.07 | 171920 | 183101
12 | 40:41.27 | 4:29.70 | 183102 | 203346
Range status and errors
Selected range
Filename D:\VOLUME 2\Placido Domingo & Bebu Silvetti - CD Collection (1994-2010)\Placido Domingo - Bajo el cielo espanol (1996)\Placido Domingo - Bajo el cielo espanol (SK 62625).wav
Peak level 98.2 %
Extraction speed 1.3 X
Range quality 100.0 %
Test CRC 9DF3D3ED
Copy CRC 9DF3D3ED
Copy OK
No errors occurred
AccurateRip summary
Track 1 accurately ripped (confidence 11) [6CC7F474] (AR v1)
Track 2 accurately ripped (confidence 11) [2F042A9E] (AR v1)
Track 3 accurately ripped (confidence 11) [DCCC8FA6] (AR v1)
Track 4 accurately ripped (confidence 11) [9B347FE1] (AR v1)
Track 5 accurately ripped (confidence 11) [83F067DA] (AR v1)
Track 6 accurately ripped (confidence 11) [3545EB0B] (AR v1)
Track 7 accurately ripped (confidence 11) [AA31E2EE] (AR v1)
Track 8 accurately ripped (confidence 11) [D416BA32] (AR v1)
Track 9 accurately ripped (confidence 11) [DB11F31C] (AR v1)
Track 10 accurately ripped (confidence 11) [6BFD20B4] (AR v1)
Track 11 accurately ripped (confidence 11) [B7F3DC7A] (AR v1)
Track 12 accurately ripped (confidence 10) [649BE6EE] (AR v1)
All tracks accurately ripped
End of status report
1997 - De mi alma latina 2 Год выпуска диска : 1997
Производитель диска : США
Аудио кодек : FLAC
Тип рипа : image+.cue (Test & Copy)
Битрейт аудио : lossless
Продолжительность : 50:26
Лейбл : EMI Latin
Каталожный номер : 724355636829
Источник (релизер): Рип оригинального диска из личной коллекции
Сканы: прилагаются

01. Sabrá Dios; Un minuto de amor; Sabor a mí
02. La paloma
03. Capullito de Alhelí; Cuando calienta el sol; Guantanamera
04. Que daría
05. Alma latina (con Tupay)
06. Vover, Volver; El Rey
07. Perdon; Obsesión (con Maggie Carles)
08. María Elena; Corazón, corazón; Fina estampa
09. Bahía; Copacabana
10. Princesita; Ay, Ay, Ay
-Дополнительная информация: Сиквел альбома De mi alma latina. Куплено в Пурпурном легионе.-

Лог создания рипа

Exact Audio Copy V1.0 beta 2 from 29. April 2011
EAC extraction logfile from 12. July 2011, 21:34
Placido Domingo / De mi alma latina 2
Used drive : TSSTcorpCDDVDW SN-S082N Adapter: 3 ID: 0
Read mode : Secure
Utilize accurate stream : Yes
Defeat audio cache : Yes
Make use of C2 pointers : No
Read offset correction : 6
Overread into Lead-In and Lead-Out : No
Fill up missing offset samples with silence : Yes
Delete leading and trailing silent blocks : No
Null samples used in CRC calculations : Yes
Used interface : Native Win32 interface for Win NT & 2000
Used output format : Internal WAV Routines
Sample format : 44.100 Hz; 16 Bit; Stereo
TOC of the extracted CD
Track | Start | Length | Start sector | End sector
---------------------------------------------------------
1 | 0:00.00 | 6:26.72 | 0 | 29021
2 | 6:26.72 | 4:27.70 | 29022 | 49116
3 | 10:54.67 | 5:22.38 | 49117 | 73304
4 | 16:17.30 | 4:37.67 | 73305 | 94146
5 | 20:55.22 | 4:04.63 | 94147 | 112509
6 | 25:00.10 | 5:34.10 | 112510 | 137569
7 | 30:34.20 | 5:25.65 | 137570 | 162009
8 | 36:00.10 | 4:43.35 | 162010 | 183269
9 | 40:43.45 | 3:51.05 | 183270 | 200599
10 | 44:34.50 | 5:51.35 | 200600 | 226959
Range status and errors
Selected range
Filename D:\VOLUME 2\Placido Domingo & Bebu Silvetti - CD Collection (1994-2010)\Placido Domingo - De mi alma latina 2 (1997)\Placido Domingo - De mi alma latina 2.wav
Peak level 99.6 %
Extraction speed 4.4 X
Range quality 100.0 %
Test CRC 64A5C0D3
Copy CRC 64A5C0D3
Copy OK
No errors occurred
AccurateRip summary
Track 1 accurately ripped (confidence 1) [CBC0A760] (AR v1)
Track 2 not present in database
Track 3 accurately ripped (confidence 1) [DA1FC331] (AR v1)
Track 4 accurately ripped (confidence 1) [6C41825F] (AR v1)
Track 5 accurately ripped (confidence 1) [6D36296A] (AR v1)
Track 6 accurately ripped (confidence 1) [D8F35883] (AR v1)
Track 7 accurately ripped (confidence 1) [DAE71B3F] (AR v1)
Track 8 accurately ripped (confidence 1) [D71876E4] (AR v1)
Track 9 accurately ripped (confidence 1) [8FC99341] (AR v1)
Track 10 not present in database
8 track(s) accurately ripped
2 track(s) not present in the AccurateRip database
Some tracks could not be verified as accurate
End of status report
1999 - 100 años de mariachi Год выпуска диска : 1999
Производитель диска : США
Аудио кодек : FLAC
Тип рипа : image+.cue (Test & Copy)
Битрейт аудио : lossless
Продолжительность : 57:26
Лейбл : EMI
Каталожный номер : H2 556925
Источник (релизер): Рип оригинального диска из личной коллекции
Сканы: прилагаются

01. Paloma querida
02. La malagueña
03. Pa' todo el año
04. De qué manera te olvido
05. Cómo olvidar
06. Tequila con limón
07. La rondalla
08. Ella
09. Más fuerte que yo
10. Ay, Jalisco no te rajes!
11. El jinete
12. Si nos dejan
13. Cuando sale la luna
14. Yo soy mexicano
15. Amanecí en tus brazos
16. La feria de las flores
-Дополнительная информация: Альбом мексиканских народных песен в стиле марьячи, который получил Грэмми. Куплено на ебее.-

Лог создания рипа

Exact Audio Copy V1.0 beta 2 from 29. April 2011
EAC extraction logfile from 18. December 2011, 14:07
Placido Domingo / 100 anos de Mariachi
Used drive : TSSTcorpCDDVDW TS-L633C Adapter: 2 ID: 0
Read mode : Secure
Utilize accurate stream : Yes
Defeat audio cache : Yes
Make use of C2 pointers : No
Read offset correction : 6
Overread into Lead-In and Lead-Out : No
Fill up missing offset samples with silence : Yes
Delete leading and trailing silent blocks : No
Null samples used in CRC calculations : Yes
Used interface : Native Win32 interface for Win NT & 2000
Used output format : Internal WAV Routines
Sample format : 44.100 Hz; 16 Bit; Stereo
TOC of the extracted CD
Track | Start | Length | Start sector | End sector
---------------------------------------------------------
1 | 0:00.00 | 3:31.30 | 0 | 15854
2 | 3:31.30 | 3:50.42 | 15855 | 33146
3 | 7:21.72 | 4:00.65 | 33147 | 51211
4 | 11:22.62 | 3:14.70 | 51212 | 65831
5 | 14:37.57 | 4:00.53 | 65832 | 83884
6 | 18:38.35 | 3:37.72 | 83885 | 100231
7 | 22:16.32 | 3:25.38 | 100232 | 115644
8 | 25:41.70 | 3:22.20 | 115645 | 130814
9 | 29:04.15 | 4:20.42 | 130815 | 150356
10 | 33:24.57 | 3:20.43 | 150357 | 165399
11 | 36:45.25 | 3:14.60 | 165400 | 180009
12 | 40:00.10 | 3:32.40 | 180010 | 195949
13 | 43:32.50 | 2:56.00 | 195950 | 209149
14 | 46:28.50 | 3:47.22 | 209150 | 226196
15 | 50:15.72 | 4:14.20 | 226197 | 245266
16 | 54:30.17 | 2:56.43 | 245267 | 258509
Range status and errors
Selected range
Filename D:\Placido Domingo & Bebu Silvetti - CD Collection (1994-2010)\Placido Domingo - 100 anos de mariachi (1999)\Placido Domingo - 100 anos de Mariachi (H2 556925).wav
Peak level 100.0 %
Extraction speed 3.5 X
Range quality 99.9 %
Test CRC 273B0354
Copy CRC 273B0354
Copy OK
No errors occurred
AccurateRip summary
Track 1 accurately ripped (confidence 5) [2C8182A0] (AR v1)
Track 2 accurately ripped (confidence 5) [2C5EB726] (AR v1)
Track 3 accurately ripped (confidence 5) [70A3E39F] (AR v1)
Track 4 accurately ripped (confidence 5) [7B399D95] (AR v1)
Track 5 accurately ripped (confidence 5) [4120736F] (AR v1)
Track 6 accurately ripped (confidence 5) [5C6FCB17] (AR v1)
Track 7 accurately ripped (confidence 5) [8714C21D] (AR v1)
Track 8 accurately ripped (confidence 5) [C0E46B87] (AR v1)
Track 9 accurately ripped (confidence 5) [A9EBA649] (AR v1)
Track 10 accurately ripped (confidence 5) [2D76AAC4] (AR v1)
Track 11 accurately ripped (confidence 5) [F55DE51E] (AR v1)
Track 12 accurately ripped (confidence 5) [B090DD7A] (AR v1)
Track 13 accurately ripped (confidence 5) [8C57A21F] (AR v1)
Track 14 accurately ripped (confidence 5) [FE952DFB] (AR v1)
Track 15 accurately ripped (confidence 5) [E5DC9B4C] (AR v1)
Track 16 accurately ripped (confidence 5) [0830E681] (AR v1)
All tracks accurately ripped
End of status report
2002 - Quiéreme mucho Год выпуска диска : 2002
Производитель диска : EU
Аудио кодек : FLAC
Тип рипа : image+.cue (Test & Copy)
Битрейт аудио : lossless
Продолжительность : 1:12:49
Лейбл : EMI
Каталожный номер : 724355729422
Источник (релизер): Рип оригинального диска из личной коллекции
Сканы: прилагаются

01. Quiéreme mucho
02. Celos; Usted
03. Flor de azalea; No me quieras tanto; Piel canela
04. Mía
05. Tú me haces falta; Sígueme
06. Cocula
07. Tres veces te amo
08. Señora
09. Tú me acostumbraste; Contigo en la distancia
10. Ayúdame, Dios mío
11. Yo sin ti
12. Tres palabras; Cenizas
13. Fallaste corazón; La que se fue; Grítenme piedras del campo
14. Así
15. Y
16. Frío, frío
17. Total-Дополнительная информация: Последний, седьмой по счету, совместный альбом Пласидо и Бебу, является продолжением альбомов De mi alma latina (1994, 1997). Куплено на британском Амазоне.-

Лог создания рипа

Exact Audio Copy V1.0 beta 2 from 29. April 2011
EAC extraction logfile from 26. November 2011, 14:29
Placido Domingo / Quiereme mucho
Used drive : TSSTcorpCDDVDW TS-L633C Adapter: 2 ID: 0
Read mode : Secure
Utilize accurate stream : Yes
Defeat audio cache : Yes
Make use of C2 pointers : No
Read offset correction : 6
Overread into Lead-In and Lead-Out : No
Fill up missing offset samples with silence : Yes
Delete leading and trailing silent blocks : No
Null samples used in CRC calculations : Yes
Used interface : Native Win32 interface for Win NT & 2000
Used output format : Internal WAV Routines
Sample format : 44.100 Hz; 16 Bit; Stereo
TOC of the extracted CD
Track | Start | Length | Start sector | End sector
---------------------------------------------------------
1 | 0:00.00 | 4:21.66 | 0 | 19640
2 | 4:21.66 | 5:08.17 | 19641 | 42757
3 | 9:30.08 | 5:59.60 | 42758 | 69742
4 | 15:29.68 | 3:51.26 | 69743 | 87093
5 | 19:21.19 | 4:46.64 | 87094 | 108607
6 | 24:08.08 | 3:04.49 | 108608 | 122456
7 | 27:12.57 | 3:14.66 | 122457 | 137072
8 | 30:27.48 | 3:39.08 | 137073 | 153505
9 | 34:06.56 | 4:26.06 | 153506 | 173461
10 | 38:32.62 | 3:29.27 | 173462 | 189163
11 | 42:02.14 | 3:57.03 | 189164 | 206941
12 | 45:59.17 | 4:25.56 | 206942 | 226872
13 | 50:24.73 | 7:04.53 | 226873 | 258725
14 | 57:29.51 | 4:20.01 | 258726 | 278226
15 | 61:49.52 | 3:30.16 | 278227 | 293992
16 | 65:19.68 | 3:46.31 | 293993 | 310973
17 | 69:06.24 | 3:43.01 | 310974 | 327699
Range status and errors
Selected range
Filename D:\VOLUME 2\Placido Domingo & Bebu Silvetti - CD Collection (1994-2010)\Placido Domingo - Quiereme mucho (2002)\Placido Domingo - Quiereme mucho.wav
Peak level 99.9 %
Extraction speed 4.1 X
Range quality 100.0 %
Test CRC 73DC89DF
Copy CRC 73DC89DF
Copy OK
No errors occurred
AccurateRip summary
Track 1 not present in database
Track 2 not present in database
Track 3 not present in database
Track 4 not present in database
Track 5 not present in database
Track 6 not present in database
Track 7 not present in database
Track 8 not present in database
Track 9 not present in database
Track 10 not present in database
Track 11 not present in database
Track 12 not present in database
Track 13 not present in database
Track 14 not present in database
Track 15 not present in database
Track 16 not present in database
Track 17 not present in database
None of the tracks are present in the AccurateRip database
End of status report
2010 - Por amor {Japanese Reissue} (SHM-CD) Год выпуска диска : 27 января 2010
Производитель диска : Япония
Аудио кодек : FLAC
Тип рипа : image+.cue (Test & Copy)
Битрейт аудио : lossless
Продолжительность : 1:03:05
Лейбл : WEA Japan
Каталожный номер : WPCS-12364
Источник (релизер): Рип оригинального диска из личной коллекции
Сканы: прилагаются

01. Mujer
02. Solamente una vez
03. Guitarra guajira; Palmera
04. Noche de ronda
05. Noche criolla
06. Te quiero
07. Maria Bonita
08. Granada
09. Rosa
10. Mi rival
11. Veracruz
12. Se me hizo fácil
13. Piensa en mi
14. Arráncame la vida
15. Palabras de mujer
16. Farolito; Arroyito
-Дополнительная информация: Японское издание в формате SHМ-CD выпущенное ограниченным тиражом альбома посвященного песням Агустина Лары, оригинально вышедшего в 1998 году. Куплено на cdjapan.-

Лог создания рипа

Exact Audio Copy V1.0 beta 2 from 29. April 2011
EAC extraction logfile from 30. June 2011, 9:41
Placido Domingo / Por amor (WPCS-12364) (SHM-CD)
Used drive : TSSTcorpCDDVDW SN-S082N Adapter: 3 ID: 0
Read mode : Secure
Utilize accurate stream : Yes
Defeat audio cache : Yes
Make use of C2 pointers : No
Read offset correction : 6
Overread into Lead-In and Lead-Out : No
Fill up missing offset samples with silence : Yes
Delete leading and trailing silent blocks : No
Null samples used in CRC calculations : Yes
Used interface : Native Win32 interface for Win NT & 2000
Used output format : Internal WAV Routines
Sample format : 44.100 Hz; 16 Bit; Stereo
TOC of the extracted CD
Track | Start | Length | Start sector | End sector
---------------------------------------------------------
1 | 0:00.00 | 4:01.58 | 0 | 18132
2 | 4:01.58 | 3:53.27 | 18133 | 35634
3 | 7:55.10 | 6:07.35 | 35635 | 63194
4 | 14:02.45 | 4:23.03 | 63195 | 82922
5 | 18:25.48 | 3:38.37 | 82923 | 99309
6 | 22:04.10 | 4:01.40 | 99310 | 117424
7 | 26:05.50 | 3:32.58 | 117425 | 133382
8 | 29:38.33 | 4:00.72 | 133383 | 151454
9 | 33:39.30 | 3:54.40 | 151455 | 169044
10 | 37:33.70 | 2:30.65 | 169045 | 180359
11 | 40:04.60 | 4:01.58 | 180360 | 198492
12 | 44:06.43 | 3:25.30 | 198493 | 213897
13 | 47:31.73 | 4:25.30 | 213898 | 233802
14 | 51:57.28 | 3:53.30 | 233803 | 251307
15 | 55:50.58 | 3:40.65 | 251308 | 267872
16 | 59:31.48 | 3:33.58 | 267873 | 283905
Range status and errors
Selected range
Filename D:\VOLUME 2\Placido Domingo - Por amor (SHM-CD) (2010)\Placido Domingo - Por amor (WPCS-12364) (SHM-CD).wav
Peak level 98.8 %
Extraction speed 1.3 X
Range quality 100.0 %
Test CRC 5A265C1F
Copy CRC 5A265C1F
Copy OK
No errors occurred
AccurateRip summary
Track 1 not present in database
Track 2 not present in database
Track 3 not present in database
Track 4 not present in database
Track 5 not present in database
Track 6 not present in database
Track 7 not present in database
Track 8 not present in database
Track 9 not present in database
Track 10 not present in database
Track 11 not present in database
Track 12 not present in database
Track 13 not present in database
Track 14 not present in database
Track 15 not present in database
Track 16 not present in database
None of the tracks are present in the AccurateRip database
End of status report
Оркестр: The VVC Symphony Orchestra (на всех дисках - за искл. (Quiereme Mucho-2002) - Miami Symphonic Strings)
Аранжировщик струнных, Дирижер, Рояль, Клавишные и Продюсер: Bebu Silvetti

Коллекция

Осталось собрать:
1994 - Christmas in Vienna II (With Dionne Warwick)



Показать сообщения:    

Текущее время: 10-Дек 11:57

Часовой пояс: UTC + 3


Вы не можете начинать темы
Вы не можете отвечать на сообщения
Вы не можете редактировать свои сообщения
Вы не можете удалять свои сообщения
Вы не можете голосовать в опросах
Вы не можете прикреплять файлы к сообщениям
Вы не можете скачивать файлы