Биографии: Сальвадор Дали / Biography: Salvador Dali (Габриэлла Поллетта / Gabriella Polletta) [2004, документальный, биография, DVB] DVO (Культура)


Статистика раздачи [Обновить пиров]
Размер:  718 MB   |    Зарегистрирован:  8 месяцев 25 дней   |    Скачан:  0 раз

Полного источника не было: Никогда

 
   
 
 
 

[Цитировать]

Биографии: Сальвадор Дали
Biography: Salvador Dali- Год выпуска: 2004
Страна: США
Жанр: документальный, биография
Продолжительность: 00:44:59
Перевод: Профессиональный (двухголосый) (ГТРК Культура)
Русские субтитры: нет
Режиссер: Габриэлла Поллетта / Gabriella Polletta
Описание: О Сальвадоре Дали известно многое, но еще больше остается неизвестным. Будучи самовлюбленным эгоцентристом, настоящим нарциссом, художник много говорил о самом себе, издал дневники, биографии, написал множество стихов, статей и прочих литературных произведений, но все это лишь сгустило туман вокруг его жизни. Отличить правду от нарочитой лжи во имя рекламы порой просто невозможно. Собственными руками Сальвадор Дали сотворил миф о себе. А, как известно, легенды - всего лишь легенды, в которых истина растворена в вымысле. ("Жизнь и Творчество Сальвадора Дали")

Информация о фильме: http://www.amazon.com/Biography-Salvador-Dali/dp/B001EEHDVA/ref=sr_1_4?s=movies-t...23376&sr=1-4
Доп. информация: Собственная запись со спутника (канал "Культура", пакет НТВ+). Ресивер Topfield5010PVR. В отличие от имеющихся на трекере TVRip TVRip в данной раздаче не сжатый цифровой поток DVB.
Качество: DVB
Формат: TS
Видео кодек: MPEG2
Аудио кодек: MP2
Видео: MPEG2, PAL 704х576@768x576 (4:3), 25 fps, ~1913 kbps
Аудио: Русский (48 kHz, MPEG Audio 2, 2 ch, ~192.00 kbps avg)

Bitrate Viewer

MediaInfo

Полное имя : H:\My Torrents\[apreder]Bio_Salvador_Dali(2004)DVB.ts
Формат : MPEG-TS
Размер файла : 718 Мбайт
Продолжительность : 44 м.
Общий поток : 2230 Кбит/сек
Видео
Идентификатор : 224 (0xE0)
Идентификатор меню : 258 (0x102)
Формат : MPEG Video
Версия формата : Version 2
Профиль формата : Main@Main
Параметр BVOP формата : Да
Параметр матрицы формата : По умолчанию
Идентификатор кодека : 2
Продолжительность : 44 м.
Вид битрейта : Переменный
Битрейт : 1926 Кбит/сек
Номинальный битрейт : 15,0 Мбит/сек
Ширина : 704 пикс.
Высота : 576 пикс.
Соотношение сторон : 4:3
Частота кадров : 25,000 кадр/сек
Стандарт вещания : PAL
Цветовое пространство : YUV
Подвыборка цветности : 4:2:0
Битовая глубина : 8 бит
Метод сжатия : С потерями
Бит/(Пиксели*Кадры) : 0.190
Размер потока : 620 Мбайт (86%)
Аудио
Идентификатор : 192 (0xC0)
Идентификатор меню : 258 (0x102)
Формат : MPEG Audio
Версия формата : Version 1
Профиль формата : Layer 2
Идентификатор кодека : 3
Продолжительность : 44 м.
Вид битрейта : Постоянный
Битрейт : 192 Кбит/сек
Каналы : 2 канала
Частота : 48,0 КГц
Метод сжатия : С потерями
Задержка видео : -880 мс.
Размер потока : 61,8 Мбайт (9%)

Скриншоты

[teatrix.ru].t16047.torrent 
Торрент: Зарегистрирован [ 2016-03-15 12:08 ] · D4287CAFFFDBE6ECFF4885D8FDEA13A5C77F4F51

Скачать .torrent

Скачать

14 KB

Статус: проверено
Скачан: 0 раз
Размер: 718 MB
terms.php



Быстрый ответ

Имя:

      
Для отправки сообщений необходимо включить JavaScript
Показать сообщения:    

Текущее время: 10-Дек 06:10

Часовой пояс: UTC + 3


Вы можете начинать темы
Вы можете отвечать на сообщения
Вы не можете редактировать свои сообщения
Вы не можете удалять свои сообщения
Вы не можете голосовать в опросах
Вы не можете прикреплять файлы к сообщениям
Вы можете скачивать файлы