(Operatic pop) Amaury Vassili - Cantero (Canterò) [New Edition] - 2011, FLAC (tracks+.cue), lossless


 

[Цитировать]

Amaury Vassili - Cantero (Canterò) [New Edition]
Жанр: Operatic pop
Год выпуска диска: 2011
Производитель диска: EU (Европейский Союз)
Аудио кодек: FLAC
Тип рипа: tracks+.cue
Битрейт аудио: lossless
Продолжительность: 1:02:55.507
Источник рипа: собственный рип с фирменного диска
Треклист:
01 Sognu
02 Canterò
03 Maria
04 Dietro L'Amore
05 Caruso
06 Io So Que Tu
07 Amapola
08 Vorrei Vorrei
09 Il Volo
10 Miserere (En duo avec Davide Esposito)
11 D'amore Morrirei
12 Con Te Partiro
13 Nella Fantasia
14 Les Moulins De Mon Cœur
15 Danza Con Me
16 I Would Dream About Her (Sognu version anglaise)
Доп. информация:
Лейбл: Warner Music France; каталожный номер: 2564673559; произведено в 2011 году.
Данный релиз - новая версия альбома "Canterò", выпущенная под Евровидение-2011 и включающая в себя все треки оригинального альбома, композиции Sognu и I Would Dream About Her.
В раздачу включены сканы полиграфии в разрешении 300 dpi.

.cue

REM GENRE "Operatic pop"
REM DATE 2010
REM DISCID F810E411
REM COMMENT "ExactAudioCopy v0.95b3"
PERFORMER "Amaury Vassili"
TITLE "Cantero"
FILE "01 – Sognu.wav" WAVE
TRACK 01 AUDIO
TITLE "Sognu"
PERFORMER "Amaury Vassili"
INDEX 01 00:00:00
TRACK 02 AUDIO
TITLE "Cantero"
PERFORMER "Amaury Vassili"
INDEX 00 02:53:50
FILE "02 – Cantero.wav" WAVE
INDEX 01 00:00:00
TRACK 03 AUDIO
TITLE "Maria"
PERFORMER "Amaury Vassili"
INDEX 00 03:38:49
FILE "03 – Maria.wav" WAVE
INDEX 01 00:00:00
TRACK 04 AUDIO
TITLE "Dietro L'Amore"
PERFORMER "Amaury Vassili"
INDEX 00 03:33:42
FILE "04 – Dietro L'Amore.wav" WAVE
INDEX 01 00:00:00
TRACK 05 AUDIO
TITLE "Caruso"
PERFORMER "Amaury Vassili"
INDEX 00 04:27:31
FILE "05 – Caruso.wav" WAVE
INDEX 01 00:00:00
FILE "06 – Io So Que Tu.wav" WAVE
TRACK 06 AUDIO
TITLE "Io So Que Tu"
PERFORMER "Amaury Vassili"
INDEX 01 00:00:00
TRACK 07 AUDIO
TITLE "Amapola"
PERFORMER "Amaury Vassili"
INDEX 00 03:45:40
FILE "07 – Amapola.wav" WAVE
INDEX 01 00:00:00
TRACK 08 AUDIO
TITLE "Vorrei Vorrei"
PERFORMER "Amaury Vassili"
INDEX 00 03:41:48
FILE "08 – Vorrei Vorrei.wav" WAVE
INDEX 01 00:00:00
TRACK 09 AUDIO
TITLE "Il Volo"
PERFORMER "Amaury Vassili"
INDEX 00 03:29:65
FILE "09 – Il Volo.wav" WAVE
INDEX 01 00:00:00
TRACK 10 AUDIO
TITLE "Miserere"
PERFORMER "Amaury Vassili"
INDEX 00 04:34:59
FILE "10 – Miserere.wav" WAVE
INDEX 01 00:00:00
TRACK 11 AUDIO
TITLE "D'amore Morrirei"
PERFORMER "Amaury Vassili"
INDEX 00 04:16:72
FILE "11 – D'amore Morrirei.wav" WAVE
INDEX 01 00:00:00
TRACK 12 AUDIO
TITLE "Con Te Partiro"
PERFORMER "Amaury Vassili"
INDEX 00 04:01:39
FILE "12 – Con Te Partiro.wav" WAVE
INDEX 01 00:00:00
TRACK 13 AUDIO
TITLE "Nella Fantasia"
PERFORMER "Amaury Vassili"
INDEX 00 04:22:09
FILE "13 – Nella Fantasia.wav" WAVE
INDEX 01 00:00:00
TRACK 14 AUDIO
TITLE "Les Moulins De Mon Coeur"
PERFORMER "Amaury Vassili"
INDEX 00 04:26:04
FILE "14 – Les Moulins De Mon Coeur.wav" WAVE
INDEX 01 00:00:00
TRACK 15 AUDIO
TITLE "Danza Con Me"
PERFORMER "Amaury Vassili"
INDEX 00 03:33:30
FILE "15 – Danza Con Me.wav" WAVE
INDEX 01 00:00:00
TRACK 16 AUDIO
TITLE "I Would Dream About Her"
PERFORMER "Amaury Vassili"
INDEX 00 03:09:16
FILE "16 – I Would Dream About Her.wav" WAVE
INDEX 01 00:00:00

EAC log

EAC extraction logfile from 20. July 2011, 14:44 for CD
Amaury Vassili / Cantero
Used drive : HL-DT-STDVDRAM GSA-H10N Adapter: 0 ID: 1
Read mode : Secure with NO C2, accurate stream, disable cache
Read offset correction : 667
Overread into Lead-In and Lead-Out : No
Used output format : C:\Program Files\FLAC\flac.exe (User Defined Encoder)
128 kBit/s
Additional command line options : -8 -V -T "ARTIST=%a" -T "TITLE=%t" -T "ALBUM=%g" -T "DATE=%y" -T "TRACKNUMBER=%n" -T "GENRE=%m" -T "COMMENT=EAC FLAC -8" %s
Other options :
Fill up missing offset samples with silence : Yes
Delete leading and trailing silent blocks : No
Installed external ASPI interface
Track 1
Filename D:\Документы\Музыка\Amaury Vassili\lossless\2010 - Cantero\01 – Sognu.wav
Pre-gap length 0:00:02.00
Peak level 100.0 %
Track quality 100.0 %
Test CRC 2F849DD2
Copy CRC 2F849DD2
Copy OK
Track 2
Filename D:\Документы\Музыка\Amaury Vassili\lossless\2010 - Cantero\02 – Cantero.wav
Pre-gap length 0:00:01.68
Peak level 98.8 %
Track quality 100.0 %
Test CRC D3FD3D10
Copy CRC D3FD3D10
Copy OK
Track 3
Filename D:\Документы\Музыка\Amaury Vassili\lossless\2010 - Cantero\03 – Maria.wav
Pre-gap length 0:00:00.98
Peak level 98.8 %
Track quality 100.0 %
Test CRC B6F72318
Copy CRC B6F72318
Copy OK
Track 4
Filename D:\Документы\Музыка\Amaury Vassili\lossless\2010 - Cantero\04 – Dietro L'Amore.wav
Pre-gap length 0:00:00.80
Peak level 98.8 %
Track quality 100.0 %
Test CRC 496AF519
Copy CRC 496AF519
Copy OK
Track 5
Filename D:\Документы\Музыка\Amaury Vassili\lossless\2010 - Cantero\05 – Caruso.wav
Pre-gap length 0:00:03.04
Peak level 98.8 %
Track quality 100.0 %
Test CRC 40C55624
Copy CRC 40C55624
Copy OK
Track 6
Filename D:\Документы\Музыка\Amaury Vassili\lossless\2010 - Cantero\06 – Io So Que Tu.wav
Peak level 98.8 %
Track quality 100.0 %
Test CRC 178F8221
Copy CRC 178F8221
Copy OK
Track 7
Filename D:\Документы\Музыка\Amaury Vassili\lossless\2010 - Cantero\07 – Amapola.wav
Pre-gap length 0:00:00.81
Peak level 98.8 %
Track quality 100.0 %
Test CRC F27F102A
Copy CRC F27F102A
Copy OK
Track 8
Filename D:\Документы\Музыка\Amaury Vassili\lossless\2010 - Cantero\08 – Vorrei Vorrei.wav
Pre-gap length 0:00:02.72
Peak level 98.2 %
Track quality 99.9 %
Test CRC 77314B22
Copy CRC 77314B22
Copy OK
Track 9
Filename D:\Документы\Музыка\Amaury Vassili\lossless\2010 - Cantero\09 – Il Volo.wav
Pre-gap length 0:00:02.62
Peak level 98.8 %
Track quality 100.0 %
Test CRC A6F3B2FE
Copy CRC A6F3B2FE
Copy OK
Track 10
Filename D:\Документы\Музыка\Amaury Vassili\lossless\2010 - Cantero\10 – Miserere.wav
Pre-gap length 0:00:02.06
Peak level 98.8 %
Track quality 100.0 %
Test CRC 1092EC20
Copy CRC 1092EC20
Copy OK
Track 11
Filename D:\Документы\Музыка\Amaury Vassili\lossless\2010 - Cantero\11 – D'amore Morrirei.wav
Pre-gap length 0:00:02.56
Peak level 98.8 %
Track quality 100.0 %
Test CRC 62F29E27
Copy CRC 62F29E27
Copy OK
Track 12
Filename D:\Документы\Музыка\Amaury Vassili\lossless\2010 - Cantero\12 – Con Te Partiro.wav
Pre-gap length 0:00:01.57
Peak level 97.1 %
Track quality 100.0 %
Test CRC 8BEEA9A2
Copy CRC 8BEEA9A2
Copy OK
Track 13
Filename D:\Документы\Музыка\Amaury Vassili\lossless\2010 - Cantero\13 – Nella Fantasia.wav
Pre-gap length 0:00:01.78
Peak level 98.8 %
Track quality 100.0 %
Test CRC E12AE47A
Copy CRC E12AE47A
Copy OK
Track 14
Filename D:\Документы\Музыка\Amaury Vassili\lossless\2010 - Cantero\14 – Les Moulins De Mon Coeur.wav
Pre-gap length 0:00:04.20
Peak level 98.8 %
Track quality 100.0 %
Test CRC C87372DF
Copy CRC C87372DF
Copy OK
Track 15
Filename D:\Документы\Музыка\Amaury Vassili\lossless\2010 - Cantero\15 – Danza Con Me.wav
Pre-gap length 0:00:01.80
Peak level 100.0 %
Track quality 99.9 %
Test CRC 8A50C7E1
Copy CRC 8A50C7E1
Copy OK
Track 16
Filename D:\Документы\Музыка\Amaury Vassili\lossless\2010 - Cantero\16 – I Would Dream About Her.wav
Pre-gap length 0:00:01.72
Peak level 100.0 %
Track quality 100.0 %
Test CRC 8A6F973C
Copy CRC 8A6F973C
Copy OK
No errors occured
End of status report

результат проверки диска программой auCDtect

-----------------------
DON'T MODIFY THIS FILE
-----------------------
PERFORMER: auCDtect Task Manager, ver. 1.0.0 Stable build 1.0.0.0
Copyright (c) 2008, 2009 y-soft. All rights reserved
http://y-soft.110mb.com
ANALYZER: auCDtect: CD records authenticity detector, version 0.8.2
Copyright (c) 2004 Oleg Berngardt. All rights reserved.
Copyright (c) 2004 Alexander Djourik. All rights reserved.
FILE: 01 – Sognu.flac
Size: 19257206 Hash: EAB6511DB0DEE4B59D0235C7C9F31694 Accuracy: -m0
Conclusion: CDDA 100%
Signature: 1E914AAA932EF4B21C140D4640F231F50EDD9132
FILE: 16 – I Would Dream About Her.flac
Size: 19327722 Hash: EE22B5F6D5C0EB38576B7C497CD0D381 Accuracy: -m0
Conclusion: CDDA 100%
Signature: 6F503F57034D97371DEF36134768E6E360432A7B
FILE: 03 – Maria.flac
Size: 23226604 Hash: 369CC4A905ED4B517F24586336481105 Accuracy: -m0
Conclusion: CDDA 100%
Signature: 9F4F0E976205A735F2C5734C06D13EE5E76A03AB
FILE: 02 – Cantero.flac
Size: 24609358 Hash: 3A87B9D88B057045000D87E23609F8EF Accuracy: -m0
Conclusion: CDDA 100%
Signature: 4D753671B9B95183AE2B33B300F911BC15E9250D
FILE: 04 – Dietro L'Amore.flac
Size: 29452782 Hash: F6BD75FBD7188D7EC906EE7084B645C5 Accuracy: -m0
Conclusion: CDDA 100%
Signature: 67677EA9FDD16038A07C91FDD606D0E7F3BBD8AB
FILE: 05 – Caruso.flac
Size: 34757489 Hash: 06C67EB717424EDAF87448878BE6CA7B Accuracy: -m0
Conclusion: CDDA 100%
Signature: CF2A9C885D5F873797AEC6A197A1762EFF3D65FD
FILE: 06 – Io So Que Tu.flac
Size: 25008137 Hash: 217853CE59E21EBD6DFD371F842D8E30 Accuracy: -m0
Conclusion: CDDA 100%
Signature: 7F4CE7309692BB5F199E99285CD5CD62D0C55222
FILE: 07 – Amapola.flac
Size: 22116619 Hash: B10D4685ED9E66FD1CD8FC6DDDB6A70D Accuracy: -m0
Conclusion: CDDA 99%
Signature: A31D812B496C28FF5A2286CD57E6869D64DE7951
FILE: 08 – Vorrei Vorrei.flac
Size: 22646515 Hash: EFD0BEF14C66584099BBA40933B82A9B Accuracy: -m0
Conclusion: CDDA 100%
Signature: 2162EE6B912A82A8F57231B6A0AB2C0D9DB13DAC
FILE: 09 – Il Volo.flac
Size: 29583375 Hash: 16BFB70EE6B98F01263CEE166ED2B6AF Accuracy: -m0
Conclusion: CDDA 100%
Signature: 8FF0464C1AB069BA4CC4356FB96CDE5E273B389D
FILE: 10 – Miserere.flac
Size: 27889278 Hash: 4927D1EEFEB6C75F9BA80584D9FA6829 Accuracy: -m0
Conclusion: CDDA 99%
Signature: D3015088A5D6178E5B39294C282BDA21657AD5B6
FILE: 11 – D'amore Morrirei.flac
Size: 25253418 Hash: D6E5BE71AAC5CE700266C24D792CA836 Accuracy: -m0
Conclusion: CDDA 100%
Signature: 57EF85895C8A29C922BEF0CB27F1257797760DF3
FILE: 12 – Con Te Partiro.flac
Size: 28515497 Hash: FA0752054A192A5F8D9B628455A7BE59 Accuracy: -m0
Conclusion: CDDA 100%
Signature: C1147D6127F27C95E3BE4253BAD0792D92B6B65E
FILE: 13 – Nella Fantasia.flac
Size: 27289355 Hash: F1C1B24ECF584444D4D9D5A3B028BF8C Accuracy: -m0
Conclusion: CDDA 99%
Signature: 743AFADC9E9BE7047186BDBAC061BB1293D13222
FILE: 15 – Danza Con Me.flac
Size: 18842126 Hash: 358319DD18C55951E7B0951F5FAA9E9F Accuracy: -m0
Conclusion: MPEG 95%
Signature: 75AD0A07D10E8401A1777BF38B7CAA71F5369FC6
FILE: 14 – Les Moulins De Mon Coeur.flac
Size: 20354768 Hash: D48A6BCCA2BEAE23E4401BBAE7DC8E58 Accuracy: -m0
Conclusion: CDDA 100%
Signature: 5C8BB15E3C9B76D287F71395311D1DF8BC749667



Показать сообщения:    

Текущее время: 09-Дек 06:51

Часовой пояс: UTC + 3


Вы не можете начинать темы
Вы не можете отвечать на сообщения
Вы не можете редактировать свои сообщения
Вы не можете удалять свои сообщения
Вы не можете голосовать в опросах
Вы не можете прикреплять файлы к сообщениям
Вы не можете скачивать файлы