(Operatic pop) Amaury Vassili - Vincero (Vincerò) [Deluxe Edition] - 2009, FLAC (tracks+.cue), lossless


 

[Цитировать]

Amaury Vassili - Vincero (Vincerò) [Deluxe Edition]
Жанр: Operatic pop
Год выпуска диска: 2009
Производитель диска: EU (Европейский Союз)
Аудио кодек: FLAC
Тип рипа: tracks+.cue
Битрейт аудио: lossless
Продолжительность: 46:06.227 (CD1) + 21:44.293 (CD2)
Источник рипа: собственный рип с фирменного диска
Треклист:
CD1
01 Vincerò
02 Parla Più Piano
03 Lucente Stella
04 Io Ti Amerò
05 Fragile
06 L'Amore
07 Un Angelo
08 Con Tutto Il Cuorre
09 Who Wants To Live Forever
10 Parla Mi D'Amore
11 Per Te
12 Hallelujah
CD2
01 Mi Fa Morire Cantando
02 Come Prima
03 With Or Without You
04 Vivere
05 Smile
06 L'Estate
Доп. информация:
Лейбл: Warner Music France; каталожный номер: 2564685028; произведено в 2009 году.
Это делюксовая версия альбома "Vincero".
В раздачу включены сканы полиграфии в разрешении 300 dpi.

.cue CD1

REM GENRE "Operatic pop"
REM DATE 2009
REM DISCID 9D0ACE0C
REM COMMENT "ExactAudioCopy v0.95b3"
PERFORMER "Amaury Vassili"
TITLE "Vincero"
FILE "01 – Vincero.wav" WAVE
TRACK 01 AUDIO
TITLE "Vincero"
PERFORMER "Amaury Vassili"
INDEX 01 00:00:00
TRACK 02 AUDIO
TITLE "Parla Piu Piano"
PERFORMER "Amaury Vassili"
INDEX 00 03:35:18
FILE "02 – Parla Piu Piano.wav" WAVE
INDEX 01 00:00:00
TRACK 03 AUDIO
TITLE "Lucente Stella"
PERFORMER "Amaury Vassili"
INDEX 00 03:11:23
FILE "03 – Lucente Stella.wav" WAVE
INDEX 01 00:00:00
TRACK 04 AUDIO
TITLE "Io Ti Amero"
PERFORMER "Amaury Vassili"
INDEX 00 04:01:36
FILE "04 – Io Ti Amero.wav" WAVE
INDEX 01 00:00:00
TRACK 05 AUDIO
TITLE "Fragile"
PERFORMER "Amaury Vassili"
INDEX 00 03:49:31
FILE "05 – Fragile.wav" WAVE
INDEX 01 00:00:00
TRACK 06 AUDIO
TITLE "L'Amore"
PERFORMER "Amaury Vassili"
INDEX 00 03:34:36
FILE "06 – L'Amore.wav" WAVE
INDEX 01 00:00:00
TRACK 07 AUDIO
TITLE "Un Angelo"
PERFORMER "Amaury Vassili"
INDEX 00 03:09:74
FILE "07 – Un Angelo.wav" WAVE
INDEX 01 00:00:00
TRACK 08 AUDIO
TITLE "Con Tutto Il Cuorre"
PERFORMER "Amaury Vassili"
INDEX 00 03:33:16
FILE "08 – Con Tutto Il Cuorre.wav" WAVE
INDEX 01 00:00:00
TRACK 09 AUDIO
TITLE "Who Wants To Live Forever"
PERFORMER "Amaury Vassili"
INDEX 00 03:47:24
FILE "09 – Who Wants To Live Forever.wav" WAVE
INDEX 01 00:00:00
TRACK 10 AUDIO
TITLE "Parla Mi D'Amore"
PERFORMER "Amaury Vassili"
INDEX 00 03:38:45
FILE "10 – Parla Mi D'Amore.wav" WAVE
INDEX 01 00:00:00
TRACK 11 AUDIO
TITLE "Per Te"
PERFORMER "Amaury Vassili"
INDEX 00 03:39:35
FILE "11 – Per Te.wav" WAVE
INDEX 01 00:00:00
TRACK 12 AUDIO
TITLE "Hallelujah"
PERFORMER "Amaury Vassili"
INDEX 00 03:20:69
FILE "12 – Hallelujah.wav" WAVE
INDEX 01 00:00:00

.cue CD2

REM GENRE "Operatic pop"
REM DATE 2009
REM DISCID 5C073F07
REM COMMENT "ExactAudioCopy v0.95b3"
PERFORMER "Amaury Vassili"
TITLE "Vincero (Disc 2)"
FILE "01 – Mi Fa Morire Cantando.wav" WAVE
TRACK 01 AUDIO
TITLE "Mi Fa Morire Cantando"
PERFORMER "Amaury Vassili"
INDEX 01 00:00:00
TRACK 02 AUDIO
TITLE "Come Prima"
PERFORMER "Amaury Vassili"
INDEX 00 03:38:44
FILE "02 – Come Prima.wav" WAVE
INDEX 01 00:00:00
TRACK 03 AUDIO
TITLE "With Or Without You"
PERFORMER "Amaury Vassili"
INDEX 00 03:17:41
FILE "03 – With Or Without You.wav" WAVE
INDEX 01 00:00:00
TRACK 04 AUDIO
TITLE "Vivere"
PERFORMER "Amaury Vassili"
INDEX 00 04:15:03
FILE "04 – Vivere.wav" WAVE
INDEX 01 00:00:00
TRACK 05 AUDIO
TITLE "Smile"
PERFORMER "Amaury Vassili"
INDEX 00 03:28:31
FILE "05 – Smile.wav" WAVE
INDEX 01 00:00:00
TRACK 06 AUDIO
TITLE "L'Estate"
PERFORMER "Amaury Vassili"
INDEX 00 03:23:62
FILE "06 – L'Estate.wav" WAVE
INDEX 01 00:00:00

EAC log CD1

EAC extraction logfile from 20. July 2011, 15:57 for CD
Amaury Vassili / Vincero
Used drive : HL-DT-STDVDRAM GSA-H10N Adapter: 0 ID: 1
Read mode : Secure with NO C2, accurate stream, disable cache
Read offset correction : 667
Overread into Lead-In and Lead-Out : No
Used output format : C:\Program Files\FLAC\flac.exe (User Defined Encoder)
128 kBit/s
Additional command line options : -8 -V -T "ARTIST=%a" -T "TITLE=%t" -T "ALBUM=%g" -T "DATE=%y" -T "TRACKNUMBER=%n" -T "GENRE=%m" -T "COMMENT=EAC FLAC -8" %s
Other options :
Fill up missing offset samples with silence : Yes
Delete leading and trailing silent blocks : No
Installed external ASPI interface
Track 1
Filename D:\Документы\Музыка\Amaury Vassili\lossless\2009 - Vincero\01 – Vincero.wav
Pre-gap length 0:00:02.00
Peak level 98.8 %
Track quality 100.0 %
Test CRC 452B2602
Copy CRC 452B2602
Copy OK
Track 2
Filename D:\Документы\Музыка\Amaury Vassili\lossless\2009 - Vincero\02 – Parla Piu Piano.wav
Pre-gap length 0:00:03.13
Peak level 98.8 %
Track quality 100.0 %
Test CRC 542BBD2D
Copy CRC 542BBD2D
Copy OK
Track 3
Filename D:\Документы\Музыка\Amaury Vassili\lossless\2009 - Vincero\03 – Lucente Stella.wav
Pre-gap length 0:00:02.77
Peak level 98.8 %
Track quality 100.0 %
Test CRC 31D55B50
Copy CRC 31D55B50
Copy OK
Track 4
Filename D:\Документы\Музыка\Amaury Vassili\lossless\2009 - Vincero\04 – Io Ti Amero.wav
Pre-gap length 0:00:02.77
Peak level 98.8 %
Track quality 100.0 %
Test CRC D74AED8C
Copy CRC D74AED8C
Copy OK
Track 5
Filename D:\Документы\Музыка\Amaury Vassili\lossless\2009 - Vincero\05 – Fragile.wav
Pre-gap length 0:00:02.77
Peak level 98.8 %
Track quality 100.0 %
Test CRC 74421409
Copy CRC 74421409
Copy OK
Track 6
Filename D:\Документы\Музыка\Amaury Vassili\lossless\2009 - Vincero\06 – L'Amore.wav
Pre-gap length 0:00:02.77
Peak level 98.8 %
Track quality 100.0 %
Test CRC A7F95F6F
Copy CRC A7F95F6F
Copy OK
Track 7
Filename D:\Документы\Музыка\Amaury Vassili\lossless\2009 - Vincero\07 – Un Angelo.wav
Pre-gap length 0:00:03.13
Peak level 98.8 %
Track quality 100.0 %
Test CRC AF91BB3C
Copy CRC AF91BB3C
Copy OK
Track 8
Filename D:\Документы\Музыка\Amaury Vassili\lossless\2009 - Vincero\08 – Con Tutto Il Cuorre.wav
Pre-gap length 0:00:03.00
Peak level 98.8 %
Track quality 99.9 %
Test CRC 573C87DF
Copy CRC 573C87DF
Copy OK
Track 9
Filename D:\Документы\Музыка\Amaury Vassili\lossless\2009 - Vincero\09 – Who Wants To Live Forever.wav
Pre-gap length 0:00:03.13
Peak level 98.8 %
Track quality 100.0 %
Test CRC C130D293
Copy CRC C130D293
Copy OK
Track 10
Filename D:\Документы\Музыка\Amaury Vassili\lossless\2009 - Vincero\10 – Parla Mi D'Amore.wav
Pre-gap length 0:00:02.77
Peak level 98.8 %
Track quality 100.0 %
Test CRC 7EA178FB
Copy CRC 7EA178FB
Copy OK
Track 11
Filename D:\Документы\Музыка\Amaury Vassili\lossless\2009 - Vincero\11 – Per Te.wav
Pre-gap length 0:00:03.13
Peak level 98.8 %
Track quality 99.9 %
Test CRC 4C0E48AA
Copy CRC 4C0E48AA
Copy OK
Track 12
Filename D:\Документы\Музыка\Amaury Vassili\lossless\2009 - Vincero\12 – Hallelujah.wav
Pre-gap length 0:00:03.26
Suspicious position 0:06:11
Peak level 98.8 %
Track quality 99.8 %
Test CRC 56F33D2B
Copy CRC 56F33D2B
Copy finished
There were errors
End of status report

EAC log CD2

EAC extraction logfile from 20. July 2011, 21:46 for CD
Amaury Vassili / Vincero (Disc 2)
Used drive : HL-DT-STDVDRAM GSA-H10N Adapter: 0 ID: 1
Read mode : Secure with NO C2, accurate stream, disable cache
Read offset correction : 667
Overread into Lead-In and Lead-Out : No
Used output format : C:\Program Files\FLAC\flac.exe (User Defined Encoder)
128 kBit/s
Additional command line options : -8 -V -T "ARTIST=%a" -T "TITLE=%t" -T "ALBUM=%g" -T "DATE=%y" -T "TRACKNUMBER=%n" -T "GENRE=%m" -T "COMMENT=EAC FLAC -8" %s
Other options :
Fill up missing offset samples with silence : Yes
Delete leading and trailing silent blocks : No
Installed external ASPI interface
Track 1
Filename D:\Документы\Музыка\Amaury Vassili\lossless\2009 - Vincero\Disc 2\01 – Mi Fa Morire Cantando.wav
Pre-gap length 0:00:02.00
Peak level 100.0 %
Track quality 100.0 %
Test CRC 66BC7627
Copy CRC 66BC7627
Copy OK
Track 2
Filename D:\Документы\Музыка\Amaury Vassili\lossless\2009 - Vincero\Disc 2\02 – Come Prima.wav
Pre-gap length 0:00:01.78
Peak level 98.8 %
Track quality 100.0 %
Test CRC 36761737
Copy CRC 36761737
Copy OK
Track 3
Filename D:\Документы\Музыка\Amaury Vassili\lossless\2009 - Vincero\Disc 2\03 – With Or Without You.wav
Pre-gap length 0:00:01.78
Peak level 98.8 %
Track quality 100.0 %
Test CRC DCF2CA28
Copy CRC DCF2CA28
Copy OK
Track 4
Filename D:\Документы\Музыка\Amaury Vassili\lossless\2009 - Vincero\Disc 2\04 – Vivere.wav
Pre-gap length 0:00:01.78
Peak level 98.8 %
Track quality 100.0 %
Test CRC 2C9AF409
Copy CRC 2C9AF409
Copy OK
Track 5
Filename D:\Документы\Музыка\Amaury Vassili\lossless\2009 - Vincero\Disc 2\05 – Smile.wav
Pre-gap length 0:00:01.78
Peak level 98.8 %
Track quality 100.0 %
Test CRC 55B8F3D2
Copy CRC 55B8F3D2
Copy OK
Track 6
Filename D:\Документы\Музыка\Amaury Vassili\lossless\2009 - Vincero\Disc 2\06 – L'Estate.wav
Pre-gap length 0:00:01.78
Peak level 98.8 %
Track quality 100.0 %
Test CRC DDC06FCA
Copy CRC DDC06FCA
Copy OK
No errors occured
End of status report

результат проверки диска программой auCDtect CD1

-----------------------
DON'T MODIFY THIS FILE
-----------------------
PERFORMER: auCDtect Task Manager, ver. 1.0.0 Stable build 1.0.0.0
Copyright (c) 2008, 2009 y-soft. All rights reserved
http://y-soft.110mb.com
ANALYZER: auCDtect: CD records authenticity detector, version 0.8.2
Copyright (c) 2004 Oleg Berngardt. All rights reserved.
Copyright (c) 2004 Alexander Djourik. All rights reserved.
FILE: 11 – Per Te.flac
Size: 22080907 Hash: 945E5E13F1DA5D77EEE8CB2FF9268AEA Accuracy: -m0
Conclusion: CDDA 100%
Signature: C55697617224B7503117D2E5E47B5BA44AC12E76
FILE: 01 – Vincero.flac
Size: 23400627 Hash: 01032D155EFD2921861F86C378DED2D1 Accuracy: -m0
Conclusion: CDDA 99%
Signature: 3D7E140A5A895215E60A3BC5C58D61E621A6EB2E
FILE: 12 – Hallelujah.flac
Size: 39480047 Hash: EF0984419CC5D88B09476915CD3FC27C Accuracy: -m0
Conclusion: CDDA 100%
Signature: E528709AD60D1287C20A8B10E48727B8AE9BE2B4
FILE: 02 – Parla Piu Piano.flac
Size: 21604299 Hash: CF7C9A154CAC59AA03E3C6599E0F191E Accuracy: -m0
Conclusion: CDDA 100%
Signature: 4927D01D31E13A994EE726EC5FA2D2E331BD8455
FILE: 03 – Lucente Stella.flac
Size: 27072811 Hash: CC1DC16682342DCC88245456530F4F33 Accuracy: -m0
Conclusion: CDDA 100%
Signature: 3346EF9F523BEC74B22EDA88AE74F563899D67C7
FILE: 04 – Io Ti Amero.flac
Size: 25417884 Hash: C409B19D1E43CDDA993866CE31D83B7F Accuracy: -m0
Conclusion: CDDA 100%
Signature: 3AB6F81BB0EDD524102844A49FC50C56A6528626
FILE: 06 – L'Amore.flac
Size: 21624217 Hash: 9BC6FB96FA69CA63899C7AA6C152422F Accuracy: -m0
Conclusion: CDDA 100%
Signature: 08504E70A4F3425A338A74DAF8B739F94F9ED896
FILE: 05 – Fragile.flac
Size: 20124932 Hash: 6F6AD88420620084B7A73732F6994BDF Accuracy: -m0
Conclusion: ???
Signature: B979AEA9A4D7E63CE449ACD51513B66495EFFD85
FILE: 07 – Un Angelo.flac
Size: 24141064 Hash: 2A3FE34E14E98B28DF027ADDFA9AD5CC Accuracy: -m0
Conclusion: CDDA 100%
Signature: A8755C15DF417CBDE9761C4BAA88923813821D0F
FILE: 08 – Con Tutto Il Cuorre.flac
Size: 25537691 Hash: CC68588332D7CC1C894E46EE1FBDB7B9 Accuracy: -m0
Conclusion: CDDA 100%
Signature: 592B83969827C390F45624E24835E3EB96015DD4
FILE: 09 – Who Wants To Live Forever.flac
Size: 23534056 Hash: BD648B57C45BBB8C6A1277850AD5E10C Accuracy: -m0
Conclusion: CDDA 99%
Signature: 2607526EF612A87382DA9D4A1C7A5CABF3C78450
FILE: 10 – Parla Mi D'Amore.flac
Size: 23975653 Hash: ECFE5A4F6F5CE2B1BAA5BDEFF8282DE0 Accuracy: -m0
Conclusion: CDDA 100%
Signature: B66157754BD4399AF0E825D7BF0D92514FD65CAC

результат проверки диска программой auCDtect CD2

-----------------------
DON'T MODIFY THIS FILE
-----------------------
PERFORMER: auCDtect Task Manager, ver. 1.0.0 Stable build 1.0.0.0
Copyright (c) 2008, 2009 y-soft. All rights reserved
http://y-soft.110mb.com
ANALYZER: auCDtect: CD records authenticity detector, version 0.8.2
Copyright (c) 2004 Oleg Berngardt. All rights reserved.
Copyright (c) 2004 Alexander Djourik. All rights reserved.
FILE: 06 – L'Estate.flac
Size: 20972687 Hash: 56450CCFDA7F2354C87C2A220F88B5F4 Accuracy: -m0
Conclusion: CDDA 100%
Signature: 6D5C925E2FFF2D3AC3C801A8DF89FE1DCF9D6523
FILE: 01 – Mi Fa Morire Cantando.flac
Size: 23994426 Hash: 3054CC60398E97C2E61C3D21B64C2EEA Accuracy: -m0
Conclusion: CDDA 100%
Signature: 7503162BC9B40D90D4221C7FB3921FC6341437ED
FILE: 02 – Come Prima.flac
Size: 21528362 Hash: 53EE35BB4E37ED20F14626546B1556E9 Accuracy: -m0
Conclusion: CDDA 100%
Signature: 03490C59EBD93164245B3D620B362393CEB40816
FILE: 03 – With Or Without You.flac
Size: 28918017 Hash: 574CB7E555295E511DB017BE90E524B5 Accuracy: -m0
Conclusion: CDDA 100%
Signature: 1C8A04F4AA70169219BC6A77CA4D7DC87168CC04
FILE: 04 – Vivere.flac
Size: 22672348 Hash: AA85364F52EF2ACAA781707BE6359C17 Accuracy: -m0
Conclusion: CDDA 100%
Signature: 14D5B24A31857DC1B85084E682C157939C14FBB0
FILE: 05 – Smile.flac
Size: 21912399 Hash: C02BCF666F7352287F8E853FE36CDFEB Accuracy: -m0
Conclusion: CDDA 100%
Signature: 63712D4484FB546B653FACE0027B5F9ACE34D4F1



Показать сообщения:    

Текущее время: 06-Дек 20:59

Часовой пояс: UTC + 3


Вы не можете начинать темы
Вы не можете отвечать на сообщения
Вы не можете редактировать свои сообщения
Вы не можете удалять свои сообщения
Вы не можете голосовать в опросах
Вы не можете прикреплять файлы к сообщениям
Вы не можете скачивать файлы