(Classical Crossover) Szentpeteri Csilla - дискография - 4 альбома (1993-2005), FLAC (tracks+.cue), lossless


 

[Цитировать]

Szentpéteri Csilla - дискография - 4 альбома (lossless)
Жанр: Classical Crossover, jazz, rock,klasszikus témák ötvözve latin
Производитель диска: Венгрия
Аудио кодек: FLAC
Тип рипа: tracks+.cue
Битрейт аудио: lossless
.
.

Альбомы:

1993 — Stella románcok (49:48)

1 Álmok éje 3'42"
2 Római emlékek 3'34"
3 Piéta 3'41"
4 Vihar 2'42"
5 Vénusz trónja 2'42"
6 Vágyakozás 4'01"
7 Háborgó lélek 4'06"
8 Örintés 2'32"
9 Magány 3'30"
10 Via Dolorosa 5'03"
11 Kísértés 3'18"
12 Ballada 4'09"
13 Gioconda 2'09"
14 Feloldozás 3'24"

CUE

REM GENRE Classical
REM DATE 1993
REM DISCID C50BAB0E
REM COMMENT "ExactAudioCopy v0.99pb4"
FILE "01 - Álmok éje - Night of Dreams.wav" WAVE
TRACK 01 AUDIO
INDEX 01 00:00:00
TRACK 02 AUDIO
INDEX 00 03:41:67
FILE "02 - Római emlékek - Memories of Rome.wav" WAVE
INDEX 01 00:00:00
TRACK 03 AUDIO
INDEX 00 03:33:45
FILE "03 - Piéta - Pieta.wav" WAVE
INDEX 01 00:00:00
TRACK 04 AUDIO
INDEX 00 03:40:12
FILE "04 - Vihar - Storm.wav" WAVE
INDEX 01 00:00:00
TRACK 05 AUDIO
INDEX 00 03:29:07
FILE "05 - Vénusz trónja - Throne of Venus.wav" WAVE
INDEX 01 00:00:00
TRACK 06 AUDIO
INDEX 00 02:41:52
FILE "06 - Vágyakozás - Desire.wav" WAVE
INDEX 01 00:00:00
TRACK 07 AUDIO
INDEX 00 04:00:50
FILE "07 - Háborgó lélek - Excited Soul.wav" WAVE
INDEX 01 00:00:00
TRACK 08 AUDIO
INDEX 00 04:06:10
FILE "08 - Érintés - Touching.wav" WAVE
INDEX 01 00:00:00
TRACK 09 AUDIO
INDEX 00 02:31:47
FILE "09 - Magány - Solitude.wav" WAVE
INDEX 01 00:00:00
TRACK 10 AUDIO
INDEX 00 03:29:62
FILE "10 - Via Dolorosa - Via Dolorosa.wav" WAVE
INDEX 01 00:00:00
TRACK 11 AUDIO
INDEX 00 05:03:05
FILE "11 - Kísértés - Temptation.wav" WAVE
INDEX 01 00:00:00
TRACK 12 AUDIO
INDEX 00 03:18:15
FILE "12 - Ballada - Ballad.wav" WAVE
INDEX 01 00:00:00
TRACK 13 AUDIO
INDEX 00 04:09:20
FILE "13 - Gioconda - Gioconda.wav" WAVE
INDEX 01 00:00:00
TRACK 14 AUDIO
INDEX 00 02:08:40
FILE "14 - Feldolgozás - Absolution.wav" WAVE
INDEX 01 00:00:00

2002 — Vadhajtások (49:49)

01 - Nyitány (Pugnani témájára) - Overture , Introduction and Allegro (theme of Pugnani)
02 - Nemorino románca (Donizetti témájára) - Nemorino's Romance (theme of Donizetti)
03 - Álmodozás (Debussy témájára) - Reveire (theme of Debussy)
04 - Solveig dala (Grieg témájára) - Solveig's Song (theme of Grieg)
05 - Dongó (Rimszkij-Korszakov témájára) - Bumblebee (theme of Rimsky-Korsakoff)
06 - Moldva (Smetana témájára) - Moldau (theme of Smetana)
07 - Oriental (Rachmaninov témájára) - Oriental , Piano concerto No. 3 (theme of Rachmaninov)
08 - Albatrosz (Chopin- cisz-moll Noktürn témájára) - Albatross , Nocturne, Brown-Index 49 (theme of Chopin)
09 - Gymnopédie II. (Satie témájára) - Gymnopédie No. 2 (theme of Satie)
10 - Lávatenger (Gluck témájára) - Torrent of Lava , Orfeo ed Euridice (theme of Gluck)
11 - Vihar (Vivaldi témájára) - Storm , The Four Seasons - Summer (theme of Vivaldi)
12 - Siciliano (J.S. Bach témájára) - Siciliano (theme of J.S. Bach, Sonate No. 2. BWV 1031)

CUE

REM GENRE Classical
REM DATE 2002
REM DISCID A10BAD0C
REM COMMENT "ExactAudioCopy v0.99pb4"
FILE "01 - Nyitány (Pugnani témájára) - Overture , Introduction and Allegro (theme of Pugnani).wav" WAVE
TRACK 01 AUDIO
INDEX 01 00:00:00
TRACK 02 AUDIO
INDEX 00 04:55:51
FILE "02 - Nemorino románca (Donizetti témájára) - Nemorino's Romance (theme of Donizetti).wav" WAVE
INDEX 01 00:00:00
TRACK 03 AUDIO
INDEX 00 04:04:20
FILE "03 - Álmodozás (Debussy témájára) - Reveire (theme of Debussy).wav" WAVE
INDEX 01 00:00:00
TRACK 04 AUDIO
INDEX 00 04:42:09
FILE "04 - Solveig dala (Grieg témájára) - Solveig's Song (theme of Grieg).wav" WAVE
INDEX 01 00:00:00
TRACK 05 AUDIO
INDEX 00 04:48:55
FILE "05 - Dongó (Rimszkij-Korszakov témájára) - Bumblebee (theme of Rimsky-Korsakoff).wav" WAVE
INDEX 01 00:00:00
TRACK 06 AUDIO
INDEX 00 03:51:17
FILE "06 - Moldva (Smetana témájára) - Moldau (theme of Smetana).wav" WAVE
INDEX 01 00:00:00
TRACK 07 AUDIO
INDEX 00 03:28:50
FILE "07 - Oriental (Rachmaninov témájára) - Oriental , Piano concerto No. 3 (theme of Rachmaninov).wav" WAVE
INDEX 01 00:00:00
TRACK 08 AUDIO
INDEX 00 04:09:56
FILE "08 - Albatrosz (Chopin- cisz-moll Noktürn témájára) - Albatross , Nocturne, Brown-Index 49 (theme of Chopin).wav" WAVE
INDEX 01 00:00:00
TRACK 09 AUDIO
INDEX 00 03:57:29
FILE "09 - Gymnopédie II. (Satie témájára) - Gymnopédie No. 2 (theme of Satie).wav" WAVE
INDEX 01 00:00:00
TRACK 10 AUDIO
INDEX 00 03:44:69
FILE "10 - Lávatenger (Gluck témájára) - Torrent of Lava , Orfeo ed Euridice (theme of Gluck).wav" WAVE
INDEX 01 00:00:00
TRACK 11 AUDIO
INDEX 00 04:21:70
FILE "11 - Vihar (Vivaldi témájára) - Storm , The Four Seasons - Summer (theme of Vivaldi).wav" WAVE
INDEX 01 00:00:00
TRACK 12 AUDIO
INDEX 00 03:38:45
FILE "12 - Siciliano (J.S. Bach témájára) - Siciliano (theme of J.S. Bach, Sonate No. 2. BWV 1031).wav" WAVE
INDEX 01 00:00:00

2003 — Időzónák (48:55)

01. Intro Inferno (Vivaldi) [0:04:31.65]
02. Flört (Delibes) [0:04:11.82]
03. Borostyán (Csajkovszkij) [0:04:53.45]
04. Horizont (Liszt) [0:05:01.49]
05. Életöröm (Brahms) [0:03:53.09]
06. Glória (Mozart) [0:03:57.60]
07. Ópium (Rimszkij-Korszakov) [0:04:05.60]
08. Legenda I. (Szentpéteri Cs.-Barcsik V.) [0:02:39.26]
09. Legenda II. (Mendelssohn) [0:03:18.98]
10. Fiesta (Rossini) [0:02:39.13]
11. Atlantisz (E. Satie) [0:05:25.37]
12. To Christofer (Mascagni) [0:04:17.77]

CUE

REM GENRE Classical
REM DATE 2003
REM DISCID AB0B770C
REM COMMENT "ExactAudioCopy v1.0b1"
FILE "01 - Intro Inferno (Vivaldi).wav" WAVE
TRACK 01 AUDIO
FLAGS DCP
INDEX 01 00:00:00
FILE "02 - Flört (Delibes).wav" WAVE
TRACK 02 AUDIO
FLAGS DCP
INDEX 01 00:00:00
FILE "03 - Borostyán (Csajkovszkij).wav" WAVE
TRACK 03 AUDIO
FLAGS DCP
INDEX 01 00:00:00
FILE "04 - Horizont (Liszt).wav" WAVE
TRACK 04 AUDIO
FLAGS DCP
INDEX 01 00:00:00
FILE "05 - Életöröm (Brahms).wav" WAVE
TRACK 05 AUDIO
FLAGS DCP
INDEX 01 00:00:00
FILE "06 - Glória (Mozart).wav" WAVE
TRACK 06 AUDIO
FLAGS DCP
INDEX 01 00:00:00
FILE "07 - Ópium (Rimszkij-Korszakov).wav" WAVE
TRACK 07 AUDIO
FLAGS DCP
INDEX 01 00:00:00
FILE "08 - Legenda I. (Szentpéteri Cs.-Barcsik V.).wav" WAVE
TRACK 08 AUDIO
FLAGS DCP
INDEX 01 00:00:00
FILE "09 - Legenda II. (Mendelssohn).wav" WAVE
TRACK 09 AUDIO
FLAGS DCP
INDEX 01 00:00:00
FILE "10 - Fiesta (Rossini).wav" WAVE
TRACK 10 AUDIO
FLAGS DCP
INDEX 01 00:00:00
FILE "11 - Atlantisz (E. Satie).wav" WAVE
TRACK 11 AUDIO
FLAGS DCP
INDEX 01 00:00:00
FILE "12 - To Christofer (Mascagni).wav" WAVE
TRACK 12 AUDIO
FLAGS DCP
INDEX 01 00:00:00

2005 — Láva (47:23)

01 - Sirály
02 - Láva
03 - Musztáng
04 - Füstkarikák
05 - Zarándok
06 - Aranykor
07 - Ördögtangó
08 - Templomkert
09 - Galaxis
10 - Holdjáró
11 - Meteor
12 - Fennsík

CUE

REM GENRE Classical
REM DATE 2005
REM DISCID A70B1B0C
REM COMMENT "ExactAudioCopy v0.99pb4"
FILE "01 - Sirбly.wav" WAVE
TRACK 01 AUDIO
INDEX 01 00:00:00
TRACK 02 AUDIO
INDEX 00 04:46:58
FILE "02 - Lбva.wav" WAVE
INDEX 01 00:00:00
FILE "03 - Musztбng.wav" WAVE
TRACK 03 AUDIO
INDEX 01 00:00:00
TRACK 04 AUDIO
INDEX 00 02:34:29
FILE "04 - Fьstkarikбk.wav" WAVE
INDEX 01 00:00:00
TRACK 05 AUDIO
INDEX 00 03:45:28
FILE "05 - Zarбndok.wav" WAVE
INDEX 01 00:00:00
TRACK 06 AUDIO
INDEX 00 04:14:58
FILE "06 - Aranykor.wav" WAVE
INDEX 01 00:00:00
TRACK 07 AUDIO
INDEX 00 03:29:24
FILE "07 - Цrdцgtangу.wav" WAVE
INDEX 01 00:00:00
TRACK 08 AUDIO
INDEX 00 03:30:44
FILE "08 - Templomkert.wav" WAVE
INDEX 01 00:00:00
TRACK 09 AUDIO
INDEX 00 03:54:01
FILE "09 - Galaxis.wav" WAVE
INDEX 01 00:00:00
FILE "10 - Holdjбrу.wav" WAVE
TRACK 10 AUDIO
INDEX 01 00:00:00
TRACK 11 AUDIO
INDEX 00 02:23:15
FILE "11 - Meteor.wav" WAVE
INDEX 01 00:00:00
TRACK 12 AUDIO
INDEX 00 04:33:72
FILE "12 - Fennsнk.wav" WAVE
INDEX 01 00:00:00

Логи EACStella románcok

Exact Audio Copy V0.99 prebeta 4 from 23. January 2008
EAC extraction logfile from 16. December 2009, 12:21
Szentpéteri Csilla / Wolf Péter - Stella románcok
Used drive : ASUS DRW-1604P Adapter: 0 ID: 0
Read mode : Secure
Utilize accurate stream : Yes
Defeat audio cache : Yes
Make use of C2 pointers : No
Read offset correction : 48
Overread into Lead-In and Lead-Out : No
Fill up missing offset samples with silence : Yes
Delete leading and trailing silent blocks : No
Null samples used in CRC calculations : Yes
Used interface : Installed external ASPI interface
Gap handling : Appended to previous track
Used output format : User Defined Encoder
Selected bitrate : 1024 kBit/s
Quality : High
Add ID3 tag : No
Command line compressor : C:\Program Files\FLAC\flac.exe
Additional command line options : -V -8 -T "artist=%a" -T "title=%t" -T "album=%g" -T "date=%y" -T "tracknumber=%n" -T "genre=%m" %s
TOC of the extracted CD
Track | Start | Length | Start sector | End sector
---------------------------------------------------------
1 | 0:00.00 | 3:45.20 | 0 | 16894
2 | 3:45.20 | 3:35.30 | 16895 | 33049
3 | 7:20.50 | 3:42.15 | 33050 | 49714
4 | 11:02.65 | 3:31.10 | 49715 | 65549
5 | 14:34.00 | 2:43.70 | 65550 | 77844
6 | 17:17.70 | 4:03.07 | 77845 | 96076
7 | 21:21.02 | 4:08.48 | 96077 | 114724
8 | 25:29.50 | 2:34.05 | 114725 | 126279
9 | 28:03.55 | 3:31.55 | 126280 | 142159
10 | 31:35.35 | 5:05.30 | 142160 | 165064
11 | 36:40.65 | 3:20.47 | 165065 | 180111
12 | 40:01.37 | 4:12.05 | 180112 | 199016
13 | 44:13.42 | 2:10.10 | 199017 | 208776
14 | 46:23.52 | 3:24.05 | 208777 | 224081
Track 1
Filename K:\RIP\Szentpéteri Csilla - Wolf Péter-Stella románcok(1993)[FLAC]\01 - Álmok éje - Night of Dreams.wav
Pre-gap length 0:00:02.00
Peak level 78.3 %
Track quality 100.0 %
Test CRC E0C418A8
Copy CRC E0C418A8
Track not present in AccurateRip database
Copy OK
Track 2
Filename K:\RIP\Szentpéteri Csilla - Wolf Péter-Stella románcok(1993)[FLAC]\02 - Római emlékek - Memories of Rome.wav
Pre-gap length 0:00:03.37
Peak level 62.7 %
Track quality 100.0 %
Test CRC E0AEA98B
Copy CRC E0AEA98B
Track not present in AccurateRip database
Copy OK
Track 3
Filename K:\RIP\Szentpéteri Csilla - Wolf Péter-Stella románcok(1993)[FLAC]\03 - Piéta - Pieta.wav
Pre-gap length 0:00:01.80
Peak level 52.6 %
Track quality 100.0 %
Test CRC 76F9E436
Copy CRC 76F9E436
Track not present in AccurateRip database
Copy OK
Track 4
Filename K:\RIP\Szentpéteri Csilla - Wolf Péter-Stella románcok(1993)[FLAC]\04 - Vihar - Storm.wav
Pre-gap length 0:00:02.04
Peak level 83.5 %
Track quality 100.0 %
Test CRC EF744100
Copy CRC EF744100
Track not present in AccurateRip database
Copy OK
Track 5
Filename K:\RIP\Szentpéteri Csilla - Wolf Péter-Stella románcok(1993)[FLAC]\05 - Vénusz trónja - Throne of Venus.wav
Pre-gap length 0:00:02.04
Peak level 63.1 %
Track quality 100.0 %
Test CRC 6E81656A
Copy CRC 6E81656A
Track not present in AccurateRip database
Copy OK
Track 6
Filename K:\RIP\Szentpéteri Csilla - Wolf Péter-Stella románcok(1993)[FLAC]\06 - Vágyakozás - Desire.wav
Pre-gap length 0:00:02.24
Peak level 54.9 %
Track quality 99.9 %
Test CRC E150360D
Copy CRC E150360D
Track not present in AccurateRip database
Copy OK
Track 7
Filename K:\RIP\Szentpéteri Csilla - Wolf Péter-Stella románcok(1993)[FLAC]\07 - Háborgó lélek - Excited Soul.wav
Pre-gap length 0:00:02.42
Peak level 45.9 %
Track quality 100.0 %
Test CRC 06D95C6A
Copy CRC 06D95C6A
Track not present in AccurateRip database
Copy OK
Track 8
Filename K:\RIP\Szentpéteri Csilla - Wolf Péter-Stella románcok(1993)[FLAC]\08 - Érintés - Touching.wav
Pre-gap length 0:00:02.50
Peak level 54.1 %
Track quality 99.9 %
Test CRC 770E7CAF
Copy CRC 770E7CAF
Track not present in AccurateRip database
Copy OK
Track 9
Filename K:\RIP\Szentpéteri Csilla - Wolf Péter-Stella románcok(1993)[FLAC]\09 - Magány - Solitude.wav
Pre-gap length 0:00:02.44
Peak level 67.1 %
Track quality 100.0 %
Test CRC 98581DF8
Copy CRC 98581DF8
Track not present in AccurateRip database
Copy OK
Track 10
Filename K:\RIP\Szentpéteri Csilla - Wolf Péter-Stella románcok(1993)[FLAC]\10 - Via Dolorosa - Via Dolorosa.wav
Pre-gap length 0:00:01.90
Peak level 70.0 %
Track quality 100.0 %
Test CRC 91A995D2
Copy CRC 91A995D2
Track not present in AccurateRip database
Copy OK
Track 11
Filename K:\RIP\Szentpéteri Csilla - Wolf Péter-Stella románcok(1993)[FLAC]\11 - Kísértés - Temptation.wav
Pre-gap length 0:00:02.33
Peak level 72.2 %
Track quality 100.0 %
Test CRC 3BAF0813
Copy CRC 3BAF0813
Track not present in AccurateRip database
Copy OK
Track 12
Filename K:\RIP\Szentpéteri Csilla - Wolf Péter-Stella románcok(1993)[FLAC]\12 - Ballada - Ballad.wav
Pre-gap length 0:00:02.42
Peak level 60.8 %
Track quality 100.0 %
Test CRC 7A1680ED
Copy CRC 7A1680ED
Track not present in AccurateRip database
Copy OK
Track 13
Filename K:\RIP\Szentpéteri Csilla - Wolf Péter-Stella románcok(1993)[FLAC]\13 - Gioconda - Gioconda.wav
Pre-gap length 0:00:02.80
Peak level 40.9 %
Track quality 100.0 %
Test CRC 97F408C1
Copy CRC 97F408C1
Track not present in AccurateRip database
Copy OK
Track 14
Filename K:\RIP\Szentpéteri Csilla - Wolf Péter-Stella románcok(1993)[FLAC]\14 - Feldolgozás - Absolution.wav
Pre-gap length 0:00:01.60
Peak level 64.6 %
Track quality 100.0 %
Test CRC F04A78E1
Copy CRC F04A78E1
Track not present in AccurateRip database
Copy OK
None of the tracks are present in the AccurateRip database
No errors occurred
End of status report

Vadhajtások

Exact Audio Copy V0.99 prebeta 4 from 23. January 2008
EAC extraction logfile from 21. December 2009, 14:27
Szentpéteri Csilla / Vadhajtások - Wildings
Used drive : ASUS DRW-1604P Adapter: 0 ID: 0
Read mode : Secure
Utilize accurate stream : Yes
Defeat audio cache : Yes
Make use of C2 pointers : No
Read offset correction : 48
Overread into Lead-In and Lead-Out : No
Fill up missing offset samples with silence : Yes
Delete leading and trailing silent blocks : No
Null samples used in CRC calculations : Yes
Used interface : Installed external ASPI interface
Gap handling : Appended to previous track
Used output format : User Defined Encoder
Selected bitrate : 1024 kBit/s
Quality : High
Add ID3 tag : No
Command line compressor : C:\Program Files\FLAC\flac.exe
Additional command line options : -V -8 -T "artist=%a" -T "title=%t" -T "album=%g" -T "date=%y" -T "tracknumber=%n" -T "genre=%m" %s
TOC of the extracted CD
Track | Start | Length | Start sector | End sector
---------------------------------------------------------
1 | 0:00.00 | 4:57.51 | 0 | 22325
2 | 4:57.51 | 4:06.20 | 22326 | 40795
3 | 9:03.71 | 4:44.09 | 40796 | 62104
4 | 13:48.05 | 4:50.55 | 62105 | 83909
5 | 18:38.60 | 3:53.17 | 83910 | 101401
6 | 22:32.02 | 3:30.50 | 101402 | 117201
7 | 26:02.52 | 4:11.56 | 117202 | 136082
8 | 30:14.33 | 3:59.29 | 136083 | 154036
9 | 34:13.62 | 3:46.69 | 154037 | 171055
10 | 38:00.56 | 4:23.70 | 171056 | 190850
11 | 42:24.51 | 3:40.45 | 190851 | 207395
12 | 46:05.21 | 3:43.62 | 207396 | 224182
Track 1
Filename K:\RIP\Szentpéteri Csilla - Vadhajtások(2002)[FLAC]\01 - Nyitány (Pugnani témájára) - Overture , Introduction and Allegro (theme of Pugnani).wav
Pre-gap length 0:00:02.00
Peak level 100.0 %
Track quality 100.0 %
Test CRC 294680D1
Copy CRC 294680D1
Accurately ripped (confidence 1) [FC441626]
Copy OK
Track 2
Filename K:\RIP\Szentpéteri Csilla - Vadhajtások(2002)[FLAC]\02 - Nemorino románca (Donizetti témájára) - Nemorino's Romance (theme of Donizetti).wav
Pre-gap length 0:00:02.00
Peak level 100.0 %
Track quality 100.0 %
Test CRC 390ED4C2
Copy CRC 390ED4C2
Accurately ripped (confidence 1) [7BC9F282]
Copy OK
Track 3
Filename K:\RIP\Szentpéteri Csilla - Vadhajtások(2002)[FLAC]\03 - Álmodozás (Debussy témájára) - Reveire (theme of Debussy).wav
Pre-gap length 0:00:02.00
Peak level 100.0 %
Track quality 100.0 %
Test CRC A71D8122
Copy CRC A71D8122
Accurately ripped (confidence 1) [97F0B4D0]
Copy OK
Track 4
Filename K:\RIP\Szentpéteri Csilla - Vadhajtások(2002)[FLAC]\04 - Solveig dala (Grieg témájára) - Solveig's Song (theme of Grieg).wav
Pre-gap length 0:00:02.00
Peak level 100.0 %
Track quality 100.0 %
Test CRC B0F77C23
Copy CRC B0F77C23
Accurately ripped (confidence 1) [A4C405C6]
Copy OK
Track 5
Filename K:\RIP\Szentpéteri Csilla - Vadhajtások(2002)[FLAC]\05 - Dongó (Rimszkij-Korszakov témájára) - Bumblebee (theme of Rimsky-Korsakoff).wav
Pre-gap length 0:00:02.00
Peak level 100.0 %
Track quality 100.0 %
Test CRC A2E8FFE3
Copy CRC A2E8FFE3
Accurately ripped (confidence 1) [C4C769BD]
Copy OK
Track 6
Filename K:\RIP\Szentpéteri Csilla - Vadhajtások(2002)[FLAC]\06 - Moldva (Smetana témájára) - Moldau (theme of Smetana).wav
Pre-gap length 0:00:02.00
Peak level 100.0 %
Track quality 100.0 %
Test CRC 7E394484
Copy CRC 7E394484
Accurately ripped (confidence 1) [BC6815C2]
Copy OK
Track 7
Filename K:\RIP\Szentpéteri Csilla - Vadhajtások(2002)[FLAC]\07 - Oriental (Rachmaninov témájára) - Oriental , Piano concerto No. 3 (theme of Rachmaninov).wav
Pre-gap length 0:00:02.00
Peak level 100.0 %
Track quality 100.0 %
Test CRC EDA59F1C
Copy CRC EDA59F1C
Accurately ripped (confidence 1) [AEA1991C]
Copy OK
Track 8
Filename K:\RIP\Szentpéteri Csilla - Vadhajtások(2002)[FLAC]\08 - Albatrosz (Chopin- cisz-moll Noktürn témájára) - Albatross , Nocturne, Brown-Index 49 (theme of Chopin).wav
Pre-gap length 0:00:02.00
Peak level 100.0 %
Track quality 99.9 %
Test CRC 08EDE82A
Copy CRC 08EDE82A
Accurately ripped (confidence 1) [DBD4529D]
Copy OK
Track 9
Filename K:\RIP\Szentpéteri Csilla - Vadhajtások(2002)[FLAC]\09 - Gymnopédie II. (Satie témájára) - Gymnopédie No. 2 (theme of Satie).wav
Pre-gap length 0:00:02.00
Peak level 100.0 %
Track quality 100.0 %
Test CRC F78E89CE
Copy CRC F78E89CE
Accurately ripped (confidence 1) [FBB583C8]
Copy OK
Track 10
Filename K:\RIP\Szentpéteri Csilla - Vadhajtások(2002)[FLAC]\10 - Lávatenger (Gluck témájára) - Torrent of Lava , Orfeo ed Euridice (theme of Gluck).wav
Pre-gap length 0:00:02.00
Peak level 100.0 %
Track quality 100.0 %
Test CRC 6C09BCCD
Copy CRC 6C09BCCD
Accurately ripped (confidence 1) [29F94BD7]
Copy OK
Track 11
Filename K:\RIP\Szentpéteri Csilla - Vadhajtások(2002)[FLAC]\11 - Vihar (Vivaldi témájára) - Storm , The Four Seasons - Summer (theme of Vivaldi).wav
Pre-gap length 0:00:02.00
Peak level 100.0 %
Track quality 100.0 %
Test CRC 67FA55D5
Copy CRC 67FA55D5
Accurately ripped (confidence 1) [120F8ACA]
Copy OK
Track 12
Filename K:\RIP\Szentpéteri Csilla - Vadhajtások(2002)[FLAC]\12 - Siciliano (J.S. Bach témájára) - Siciliano (theme of J.S. Bach, Sonate No. 2. BWV 1031).wav
Pre-gap length 0:00:02.00
Peak level 100.0 %
Track quality 99.9 %
Test CRC 5564B5F0
Copy CRC 5564B5F0
Accurately ripped (confidence 1) [0EEC87B1]
Copy OK
All tracks accurately ripped
No errors occurred
End of status report

Időzónák

Exact Audio Copy V1.0 beta 1 from 15. November 2010
EAC extraction logfile from 23. July 2011, 17:43
Szentpéteri Csilla / Idõzónák (Timezones)
Used drive : HL-DT-STDVD-ROM GDR8162B Adapter: 1 ID: 1
Read mode : Secure
Utilize accurate stream : Yes
Defeat audio cache : Yes
Make use of C2 pointers : No
Read offset correction : 102
Overread into Lead-In and Lead-Out : No
Fill up missing offset samples with silence : Yes
Delete leading and trailing silent blocks : No
Null samples used in CRC calculations : Yes
Used interface : Native Win32 interface for Win NT & 2000
Gap handling : Appended to previous track
Used output format : User Defined Encoder
Selected bitrate : 896 kBit/s
Quality : High
Add ID3 tag : No
Command line compressor : C:\Program Files\Exact Audio Copy\Flac\flac.exe
Additional command line options : -V -0 -T "artist=%a" -T "title=%t" -T "album=%g" -T "date=%y" -T "tracknumber=%n" -T "genre=%m" -T "COMMENT=Released by: AVLossless Főnixek Rendje" %s
TOC of the extracted CD
Track | Start | Length | Start sector | End sector
---------------------------------------------------------
1 | 0:00.00 | 4:31.49 | 0 | 20373
2 | 4:31.49 | 4:11.62 | 20374 | 39260
3 | 8:43.36 | 4:53.34 | 39261 | 61269
4 | 13:36.70 | 5:01.37 | 61270 | 83881
5 | 18:38.32 | 3:53.07 | 83882 | 101363
6 | 22:31.39 | 3:57.45 | 101364 | 119183
7 | 26:29.09 | 4:05.45 | 119184 | 137603
8 | 30:34.54 | 2:39.20 | 137604 | 149548
9 | 33:13.74 | 3:18.74 | 149549 | 164472
10 | 36:32.73 | 2:39.10 | 164473 | 176407
11 | 39:12.08 | 5:25.28 | 176408 | 200810
12 | 44:37.36 | 4:17.58 | 200811 | 220143
Track 1
Filename G:\Sajat ripp\Szentpéteri Csilla - Időzónák (2003)\Szentpéteri Csilla - Időzónák (2003) [FLAC] - AFR\01 - Intro Inferno (Vivaldi).wav
Pre-gap length 0:00:02.00
Peak level 100.0 %
Extraction speed 4.6 X
Track quality 99.9 %
Test CRC BAD15178
Copy CRC BAD15178
Track not present in AccurateRip database
Copy OK
Track 2
Filename G:\Sajat ripp\Szentpéteri Csilla - Időzónák (2003)\Szentpéteri Csilla - Időzónák (2003) [FLAC] - AFR\02 - Flört (Delibes).wav
Peak level 100.0 %
Extraction speed 5.6 X
Track quality 100.0 %
Test CRC 3C1C88BB
Copy CRC 3C1C88BB
Track not present in AccurateRip database
Copy OK
Track 3
Filename G:\Sajat ripp\Szentpéteri Csilla - Időzónák (2003)\Szentpéteri Csilla - Időzónák (2003) [FLAC] - AFR\03 - Borostyán (Csajkovszkij).wav
Peak level 99.6 %
Extraction speed 6.2 X
Track quality 100.0 %
Test CRC 3A58F200
Copy CRC 3A58F200
Track not present in AccurateRip database
Copy OK
Track 4
Filename G:\Sajat ripp\Szentpéteri Csilla - Időzónák (2003)\Szentpéteri Csilla - Időzónák (2003) [FLAC] - AFR\04 - Horizont (Liszt).wav
Peak level 98.4 %
Extraction speed 6.1 X
Track quality 99.9 %
Test CRC CEA62B4D
Copy CRC CEA62B4D
Track not present in AccurateRip database
Copy OK
Track 5
Filename G:\Sajat ripp\Szentpéteri Csilla - Időzónák (2003)\Szentpéteri Csilla - Időzónák (2003) [FLAC] - AFR\05 - Életöröm (Brahms).wav
Peak level 100.0 %
Extraction speed 6.1 X
Track quality 99.9 %
Test CRC 3227C7E9
Copy CRC 3227C7E9
Track not present in AccurateRip database
Copy OK
Track 6
Filename G:\Sajat ripp\Szentpéteri Csilla - Időzónák (2003)\Szentpéteri Csilla - Időzónák (2003) [FLAC] - AFR\06 - Glória (Mozart).wav
Peak level 100.0 %
Extraction speed 7.3 X
Track quality 100.0 %
Test CRC 2588D277
Copy CRC 2588D277
Track not present in AccurateRip database
Copy OK
Track 7
Filename G:\Sajat ripp\Szentpéteri Csilla - Időzónák (2003)\Szentpéteri Csilla - Időzónák (2003) [FLAC] - AFR\07 - Ópium (Rimszkij-Korszakov).wav
Peak level 100.0 %
Extraction speed 7.6 X
Track quality 100.0 %
Test CRC 1ACE98B3
Copy CRC 1ACE98B3
Track not present in AccurateRip database
Copy OK
Track 8
Filename G:\Sajat ripp\Szentpéteri Csilla - Időzónák (2003)\Szentpéteri Csilla - Időzónák (2003) [FLAC] - AFR\08 - Legenda I. (Szentpéteri Cs.-Barcsik V.).wav
Peak level 80.1 %
Extraction speed 7.4 X
Track quality 100.0 %
Test CRC 6494A09D
Copy CRC 6494A09D
Track not present in AccurateRip database
Copy OK
Track 9
Filename G:\Sajat ripp\Szentpéteri Csilla - Időzónák (2003)\Szentpéteri Csilla - Időzónák (2003) [FLAC] - AFR\09 - Legenda II. (Mendelssohn).wav
Peak level 100.0 %
Extraction speed 7.9 X
Track quality 100.0 %
Test CRC 673EC756
Copy CRC 673EC756
Track not present in AccurateRip database
Copy OK
Track 10
Filename G:\Sajat ripp\Szentpéteri Csilla - Időzónák (2003)\Szentpéteri Csilla - Időzónák (2003) [FLAC] - AFR\10 - Fiesta (Rossini).wav
Peak level 98.9 %
Extraction speed 7.8 X
Track quality 100.0 %
Test CRC 50DF174C
Copy CRC 50DF174C
Track not present in AccurateRip database
Copy OK
Track 11
Filename G:\Sajat ripp\Szentpéteri Csilla - Időzónák (2003)\Szentpéteri Csilla - Időzónák (2003) [FLAC] - AFR\11 - Atlantisz (E. Satie).wav
Peak level 100.0 %
Extraction speed 8.9 X
Track quality 100.0 %
Test CRC DF55DECC
Copy CRC DF55DECC
Track not present in AccurateRip database
Copy OK
Track 12
Filename G:\Sajat ripp\Szentpéteri Csilla - Időzónák (2003)\Szentpéteri Csilla - Időzónák (2003) [FLAC] - AFR\12 - To Christofer (Mascagni).wav
Peak level 99.8 %
Extraction speed 9.0 X
Track quality 100.0 %
Test CRC CA380061
Copy CRC CA380061
Track not present in AccurateRip database
Copy OK
None of the tracks are present in the AccurateRip database
No errors occurred
End of status report
==== Log checksum B9BCB7D1F220C38FC9D8700F4E437697759E81ED9B366A0C6B190371F91FC2B9 ====

Láva

Exact Audio Copy V0.99 prebeta 4 from 23. January 2008
EAC extraction logfile from 21. December 2009, 12:40
Szentpéteri Csilla / Láva
Used drive : ASUS DRW-1604P Adapter: 0 ID: 0
Read mode : Secure
Utilize accurate stream : Yes
Defeat audio cache : Yes
Make use of C2 pointers : No
Read offset correction : 48
Overread into Lead-In and Lead-Out : No
Fill up missing offset samples with silence : Yes
Delete leading and trailing silent blocks : No
Null samples used in CRC calculations : Yes
Used interface : Installed external ASPI interface
Gap handling : Appended to previous track
Used output format : User Defined Encoder
Selected bitrate : 1024 kBit/s
Quality : High
Add ID3 tag : No
Command line compressor : C:\Program Files\FLAC\flac.exe
Additional command line options : -V -8 -T "artist=%a" -T "title=%t" -T "album=%g" -T "date=%y" -T "tracknumber=%n" -T "genre=%m" %s
TOC of the extracted CD
Track | Start | Length | Start sector | End sector
---------------------------------------------------------
1 | 0:00.00 | 4:50.58 | 0 | 21807
2 | 4:50.58 | 3:46.39 | 21808 | 38796
3 | 8:37.22 | 2:37.29 | 38797 | 50600
4 | 11:14.51 | 3:49.28 | 50601 | 67803
5 | 15:04.04 | 4:17.58 | 67804 | 87136
6 | 19:21.62 | 3:32.24 | 87137 | 103060
7 | 22:54.11 | 3:34.44 | 103061 | 119154
8 | 26:28.55 | 3:59.01 | 119155 | 137080
9 | 30:27.56 | 4:42.53 | 137081 | 158283
10 | 35:10.34 | 2:26.15 | 158284 | 169248
11 | 37:36.49 | 4:38.72 | 169249 | 190170
12 | 42:15.46 | 5:07.38 | 190171 | 213233
Track 1
Filename K:\RIP\Szentpéteri Csilla - Láva(2005)[FLAC]\01 - Sirály.wav
Pre-gap length 0:00:02.00
Peak level 98.8 %
Track quality 100.0 %
Test CRC B02CDC3E
Copy CRC B02CDC3E
Track not present in AccurateRip database
Copy OK
Track 2
Filename K:\RIP\Szentpéteri Csilla - Láva(2005)[FLAC]\02 - Láva.wav
Pre-gap length 0:00:04.00
Peak level 98.8 %
Track quality 100.0 %
Test CRC 44C75295
Copy CRC 44C75295
Track not present in AccurateRip database
Copy OK
Track 3
Filename K:\RIP\Szentpéteri Csilla - Láva(2005)[FLAC]\03 - Musztáng.wav
Peak level 98.8 %
Track quality 99.9 %
Test CRC 8F5B805B
Copy CRC 8F5B805B
Track not present in AccurateRip database
Copy OK
Track 4
Filename K:\RIP\Szentpéteri Csilla - Láva(2005)[FLAC]\04 - Füstkarikák.wav
Pre-gap length 0:00:03.00
Peak level 98.8 %
Track quality 100.0 %
Test CRC A25AA8F0
Copy CRC A25AA8F0
Track not present in AccurateRip database
Copy OK
Track 5
Filename K:\RIP\Szentpéteri Csilla - Láva(2005)[FLAC]\05 - Zarándok.wav
Pre-gap length 0:00:04.00
Peak level 98.8 %
Track quality 100.0 %
Test CRC 6F7BBABC
Copy CRC 6F7BBABC
Track not present in AccurateRip database
Copy OK
Track 6
Filename K:\RIP\Szentpéteri Csilla - Láva(2005)[FLAC]\06 - Aranykor.wav
Pre-gap length 0:00:03.00
Peak level 98.8 %
Track quality 100.0 %
Test CRC 8DCDD888
Copy CRC 8DCDD888
Track not present in AccurateRip database
Copy OK
Track 7
Filename K:\RIP\Szentpéteri Csilla - Láva(2005)[FLAC]\07 - Ördögtangó.wav
Pre-gap length 0:00:03.00
Peak level 98.8 %
Track quality 100.0 %
Test CRC 9179EDB7
Copy CRC 9179EDB7
Track not present in AccurateRip database
Copy OK
Track 8
Filename K:\RIP\Szentpéteri Csilla - Láva(2005)[FLAC]\08 - Templomkert.wav
Pre-gap length 0:00:04.00
Peak level 98.8 %
Track quality 100.0 %
Test CRC 1D2D35EE
Copy CRC 1D2D35EE
Track not present in AccurateRip database
Copy OK
Track 9
Filename K:\RIP\Szentpéteri Csilla - Láva(2005)[FLAC]\09 - Galaxis.wav
Pre-gap length 0:00:05.00
Peak level 98.8 %
Track quality 100.0 %
Test CRC DFF33F43
Copy CRC DFF33F43
Track not present in AccurateRip database
Copy OK
Track 10
Filename K:\RIP\Szentpéteri Csilla - Láva(2005)[FLAC]\10 - Holdjáró.wav
Peak level 98.8 %
Track quality 100.0 %
Test CRC 2DF85307
Copy CRC 2DF85307
Track not present in AccurateRip database
Copy OK
Track 11
Filename K:\RIP\Szentpéteri Csilla - Láva(2005)[FLAC]\11 - Meteor.wav
Pre-gap length 0:00:03.00
Peak level 98.8 %
Track quality 100.0 %
Test CRC A3E93F97
Copy CRC A3E93F97
Track not present in AccurateRip database
Copy OK
Track 12
Filename K:\RIP\Szentpéteri Csilla - Láva(2005)[FLAC]\12 - Fennsík.wav
Pre-gap length 0:00:05.00
Peak level 98.8 %
Track quality 99.9 %
Test CRC 3387F424
Copy CRC 3387F424
Track not present in AccurateRip database
Copy OK
None of the tracks are present in the AccurateRip database
No errors occurred
End of status report
Сайт исполнителя и страничка на фейсбуке.
Взято с Audio & Video LossLess Torrent.



Показать сообщения:    

Текущее время: 05-Дек 05:31

Часовой пояс: UTC + 3


Вы не можете начинать темы
Вы не можете отвечать на сообщения
Вы не можете редактировать свои сообщения
Вы не можете удалять свои сообщения
Вы не можете голосовать в опросах
Вы не можете прикреплять файлы к сообщениям
Вы не можете скачивать файлы