Ушёл, чтобы остаться. Сергей Довлатов (Сергей Коковкин) [2011, Документальный фильм, SATRemux]


Статистика раздачи [Обновить пиров]
Размер:  679 MB   |    Зарегистрирован:  8 месяцев 24 дня   |    Скачан:  0 раз

Полного источника не было: Никогда

 
   
 
 
 

[Цитировать]

Ушёл, чтобы остаться. Сергей Довлатов
Год выпуска: 2011
Страна: Россия
Жанр: Документальный фильм
Продолжительность: 00:39:19
Перевод: Не требуется
Русские субтитры: нет
Режиссер: Сергей Коковкин
Описание: Цель фильма – создать эффект присутствия Сергея Довлатова в нашей сегодняшней жизни, нарисовав портрет русского писателя на фоне века, зафиксированного им с творческим бесстрашием и провидческой глубиной.
В фильме участвуют: Елена Довлатова, профессор Лев Лосев, писатель Александр Генис, художник Вагрич Бахчанян, психолог Марина Тёмкина, художник Михаил Беломлинский, писатель Владимир Соловьев, сестра Довлатова Ксана Мечик, издатель Игорь Ефимов, герои довлатовских рассказов – братья Шапиро, художник Виталий Комар, фотограф Нина Аловерт, писатель Людмила Штерн, культуролог Константин Кузьминский, питерский друг редактор «Звезды» Андрей Арьев, литераторы Михаил Рогинский и Елена Скульская.
Доп. информация: В эфире телеканала Россия Культура 30 августа 2011 года.
Качество: SATRemux
Формат: MPG
Видео кодек: MPEG-PS
Аудио кодек: MP2
Видео: 704x576, 25 fps, MPEG-PS 2175 kbps, 0.215 bit/pixel
Аудио: MPEG-1 Layer 2, 48000Hz 192 kb/s , 2 chanal

MediaInfo

Общее
Полное имя : Ушёл, чтобы остаться. Сергей Довлатов [30.08.2011].mpg
Формат : MPEG-PS
Размер файла : 679 Мбайт
Продолжительность : 39 м.
Общий поток : 2415 Кбит/сек
Библиотека кодирования : (c) 1998-2008 Womble Multimedia, Inc. / MPEG Video Wizard (12/2008) / Mar 31 2009
Видео
Идентификатор : 224 (0xE0)
Формат : MPEG Video
Версия формата : Version 2
Профиль формата : Main@Main
Параметр BVOP формата : Да
Параметр матрицы формата : Выборочная
Параметры GOP формата : M=3, N=15
Продолжительность : 39 м.
Вид битрейта : Переменный
Битрейт : 2175 Кбит/сек
Максимальный битрейт : 15,0 Мбит/сек
Ширина : 704 пикс.
Высота : 576 пикс.
Соотношение сторон : 4:3
Частота кадров : 25,000 кадр/сек
Стандарт вещания : PAL
Цветовое пространство : YUV
Подвыборка цветности : 4:2:0
Битовая глубина : 8 бит
Тип развёртки : Прогрессивная
Порядок развёртки : Верхнее поле первое
Метод сжатия : С потерями
Бит/(Пиксели*Кадры) : 0.215
Размер потока : 612 Мбайт (90%)
Библиотека кодирования : (c) 1998-2008 Womble Multimedia, Inc. / MPEG Video Wizard (12/2008) / Mar 31 2009
Аудио
Идентификатор : 192 (0xC0)
Формат : MPEG Audio
Версия формата : Version 1
Профиль формата : Layer 2
Продолжительность : 39 м.
Вид битрейта : Постоянный
Битрейт : 192 Кбит/сек
Каналы : 2 канала
Частота : 48,0 КГц
Метод сжатия : С потерями
Размер потока : 54,0 Мбайт (8%)

Скриншоты

[teatrix.ru].t16059.torrent 
Торрент: Зарегистрирован [ 2016-03-15 12:08 ] · 3992B3F5CB989ED34696FF4C9F268F3A63A0FD4D

Скачать .torrent

Скачать

14 KB

Статус: проверено
Скачан: 0 раз
Размер: 679 MB
terms.php



Быстрый ответ

Имя:

      
Для отправки сообщений необходимо включить JavaScript
Показать сообщения:    

Текущее время: 08-Дек 19:12

Часовой пояс: UTC + 3


Вы можете начинать темы
Вы можете отвечать на сообщения
Вы не можете редактировать свои сообщения
Вы не можете удалять свои сообщения
Вы не можете голосовать в опросах
Вы не можете прикреплять файлы к сообщениям
Вы можете скачивать файлы