(Classical Crossover) Tony Henry With The Royal Philharmonic Orchestra - Modern Arias - 2003, FLAC (image+.cue), lossless


 

[Цитировать]

Tony Henry With The Royal Philharmonic Orchestra - Modern Arias
Жанр : Pop, Classical Crossover, Vocal
Страна-производитель диска : EU
Год выпуска диска : 2003
Аудио кодек : FLAC
Тип рипа : image+.cue (Test & Copy)
Битрейт аудио : lossless
Продолжительность : 58:57
Лейбл : Warner Music UK
Каталожный номер : RADAR002CD
EAN : 825646124329
Источник (релизер): Рип оригинального диска из личной коллекции
Сканы: прилагаются

01. Eroe - Hero
02. La forza dentro me - (Something Inside) So Strong
03. Per chi - Without You
04. La nostra favola - Delilah
05. Lei - She
06. Ognuno soffre - Everybody Hurts
07. Da solo no - All by Myself
08. La parola più difficile - Sorry Seems to Be the Hardest Word
09. Adesso - I Want to Know What Love Is
10. Fai quel che vuoi - Whatever You Want
11. Cerca l'eroe dentro te - Search For the Hero
12. Ieri a lei - Yesterday
13. La prima volta - The First Time Ever I Saw Your Face
14. 'O sole mio
-Дополнительная информация: Альбом афро-британского тенора Тони Генри при участии Королевского филармонического оркестра англоязычных хитов всех времен перепетых в оперной манере. Диск куплен на ебее.-

Лог создания рипа

Exact Audio Copy V1.0 beta 2 from 29. April 2011
EAC extraction logfile from 17. September 2011, 20:57
Tony Henry With The Royal Philharmonic Orchestra / Modern Arias
Used drive : TSSTcorpCDDVDW TS-L633C Adapter: 2 ID: 0
Read mode : Secure
Utilize accurate stream : Yes
Defeat audio cache : Yes
Make use of C2 pointers : No
Read offset correction : 6
Overread into Lead-In and Lead-Out : No
Fill up missing offset samples with silence : Yes
Delete leading and trailing silent blocks : No
Null samples used in CRC calculations : Yes
Used interface : Native Win32 interface for Win NT & 2000
Used output format : Internal WAV Routines
Sample format : 44.100 Hz; 16 Bit; Stereo
TOC of the extracted CD
Track | Start | Length | Start sector | End sector
---------------------------------------------------------
1 | 0:00.00 | 4:25.02 | 0 | 19876
2 | 4:25.02 | 4:53.13 | 19877 | 41864
3 | 9:18.15 | 4:37.40 | 41865 | 62679
4 | 13:55.55 | 3:48.30 | 62680 | 79809
5 | 17:44.10 | 3:32.07 | 79810 | 95716
6 | 21:16.17 | 5:04.58 | 95717 | 118574
7 | 26:21.00 | 4:05.22 | 118575 | 136971
8 | 30:26.22 | 4:31.38 | 136972 | 157334
9 | 34:57.60 | 4:50.17 | 157335 | 179101
10 | 39:48.02 | 2:21.60 | 179102 | 189736
11 | 42:09.62 | 3:40.60 | 189737 | 206296
12 | 45:50.47 | 3:39.23 | 206297 | 222744
13 | 49:29.70 | 6:13.42 | 222745 | 250761
14 | 55:43.37 | 3:14.20 | 250762 | 265331
Range status and errors
Selected range
Filename D:\Tony Henry With The Royal Philharmonic Orchestra - Modern Arias (2003)\Tony Henry With The Royal Philharmonic Orchestra - Modern Arias (RADAR002CD).wav
Peak level 97.7 %
Extraction speed 3.6 X
Range quality 100.0 %
Test CRC DE88EB15
Copy CRC DE88EB15
Copy OK
No errors occurred
AccurateRip summary
Track 1 accurately ripped (confidence 3) [5D083F9D] (AR v1)
Track 2 accurately ripped (confidence 3) [56E5F002] (AR v1)
Track 3 accurately ripped (confidence 3) [154859DE] (AR v1)
Track 4 accurately ripped (confidence 3) [760DEB41] (AR v1)
Track 5 accurately ripped (confidence 3) [2C144E7F] (AR v1)
Track 6 accurately ripped (confidence 2) [37AB0D27] (AR v1)
Track 7 accurately ripped (confidence 2) [F0936B95] (AR v1)
Track 8 accurately ripped (confidence 3) [89697093] (AR v1)
Track 9 accurately ripped (confidence 3) [FA2BCF65] (AR v1)
Track 10 accurately ripped (confidence 3) [4FA4DA19] (AR v1)
Track 11 accurately ripped (confidence 3) [C7B7C394] (AR v1)
Track 12 accurately ripped (confidence 3) [DB94E470] (AR v1)
Track 13 accurately ripped (confidence 3) [8DFA9198] (AR v1)
Track 14 accurately ripped (confidence 3) [29327488] (AR v1)
All tracks accurately ripped
End of status report



Показать сообщения:    

Текущее время: 10-Дек 23:29

Часовой пояс: UTC + 3


Вы не можете начинать темы
Вы не можете отвечать на сообщения
Вы не можете редактировать свои сообщения
Вы не можете удалять свои сообщения
Вы не можете голосовать в опросах
Вы не можете прикреплять файлы к сообщениям
Вы не можете скачивать файлы