(Electronic / Opera) VA - Electronic Opera Fantasy XYZ - 2011, FLAC (tracks+.cue)


 

[Цитировать]

VA - Electronic Opera Fantasy XYZ
Жанр: Electronic / Opera
Год выпуска диска: 2011
Производитель диска: Lithuania
Аудио кодек: FLAC
Тип рипа: tracks+.cue
Продолжительность: 00:58:37
Источник рипа: найдено в сети
Треклист:
1. „Una furtiva lagrima” from G. Donizetti opera „L’elisir d’amore”
Edgaras Montvidas, Mario Basanov
2. „Caro nome” - from G .Verdi opera „Rigoletto”
Lauryna Bendžiūnaitė, Leon Somov
3. „Mon cœur s'ouvre à ta voix” from C. Saint-Saënso opera „Samson and Dalila”
Jovita Vaškevičiūtė, Few Nolder
4. „Finch’han dal vine” - arija from W. A. Mozart opera „Don Giovanni”
Dainius Stumbras, Leon Somov
5. „Mi par d’udir Ancora” from G. Bizet opera „The Pearl Fishers”
Jeronimas Milius, Mario Basanov
6. „Habanera” from G. Bizet opera „Carmen”
Asmik Grigorian, Few Nolder
7. „Eri tu che macchiavi quell'anima” from G. Verdi opera „The Masked Ball"
Laimonas Pautienius, Leon Somov
8. Papagena & Papageno duet from W. A. Mozart opera „The Magic Flute“
Joana Gedmintaitė, Rafailas Karpis, Mario Basano
9. „Pourquoi me reveiller?” from J. Massenet opera „Werther”
Edgaras Montvidas, Few Nolder
10. „Quando m’en vo” from G.Puccini opera „La Boheme”
Lauryna Bendžiūnaitė, Mario Basanov
11. „Der holle rache” from W. A. Mozart opera „The Magic Flute”
Joana Gedmintaitė, Mario Basanov
12. „Flower Duet” from L. Delibes opera „Lakme”
Asmik Grigorian, Lauryna Bendžiūnaitė, Leon Somov

eac.log

Exact Audio Copy V1.0 beta 3 from 29. August 2011
EAC extraction logfile from 20. October 2011, 22:09
Xyz / Elektronine operos fantazija XYZ
Used drive : TSSTcorpCD/DVDW SH-S182D Adapter: 0 ID: 0
Read mode : Secure
Utilize accurate stream : Yes
Defeat audio cache : Yes
Make use of C2 pointers : No
Read offset correction : 6
Overread into Lead-In and Lead-Out : No
Fill up missing offset samples with silence : Yes
Delete leading and trailing silent blocks : No
Null samples used in CRC calculations : Yes
Used interface : Native Win32 interface for Win NT & 2000
Gap handling : Appended to previous track
Used output format : User Defined Encoder
Selected bitrate : 896 kBit/s
Quality : High
Add ID3 tag : No
Command line compressor : C:\Program Files\Exact Audio Copy\FLAC\FLAC.EXE
Additional command line options : -8 -V -T "ARTIST=%artist%" -T "TITLE=%title%" -T "ALBUM=%albumtitle%" -T "DATE=%year%" -T "TRACKNUMBER=%tracknr%" -T "GENRE=%genre%" -T "COMMENT=%comment%" -T "BAND=%albuminterpret%" -T "ALBUMARTIST=%albuminterpret%" -T "COMPOSER=%composer%" %haslyrics%--tag-from-file=LYRICS="%lyricsfile%"%haslyrics% -T "DISCNUMBER=%cdnumber%" -T "TOTALDISCS=%totalcds%" -T "TOTALTRACKS=%numtracks%" %hascover%--picture="%coverfile%"%hascover% %source% -o %dest%
TOC of the extracted CD
Track | Start | Length | Start sector | End sector
---------------------------------------------------------
1 | 0:00.00 | 4:14.55 | 0 | 19104
2 | 4:14.55 | 4:47.32 | 19105 | 40661
3 | 9:02.12 | 5:37.09 | 40662 | 65945
4 | 14:39.21 | 5:09.44 | 65946 | 89164
5 | 19:48.65 | 4:50.25 | 89165 | 110939
6 | 24:39.15 | 4:46.72 | 110940 | 132461
7 | 29:26.12 | 4:46.38 | 132462 | 153949
8 | 34:12.50 | 3:38.73 | 153950 | 170372
9 | 37:51.48 | 5:44.48 | 170373 | 196220
10 | 43:36.21 | 3:47.74 | 196221 | 213319
11 | 47:24.20 | 6:49.33 | 213320 | 244027
12 | 54:13.53 | 4:24.00 | 244028 | 263827
Track 1
Filename C:\Temp\eac\01 Una Furtiva Lagrima.wav
Pre-gap length 0:00:02.00
Peak level 99.8 %
Extraction speed 4.7 X
Track quality 100.0 %
Test CRC FC8EFE0D
Copy CRC FC8EFE0D
Copy OK
Track 2
Filename C:\Temp\eac\02 Caro Nome.wav
Pre-gap length 0:00:02.00
Peak level 99.8 %
Extraction speed 5.2 X
Track quality 100.0 %
Test CRC E83BE981
Copy CRC E83BE981
Copy OK
Track 3
Filename C:\Temp\eac\03 Mon Coeur S'ouvre a Ta Voix.wav
Pre-gap length 0:00:02.00
Peak level 90.0 %
Extraction speed 5.9 X
Track quality 100.0 %
Test CRC 82EEAC6D
Copy CRC 82EEAC6D
Copy OK
Track 4
Filename C:\Temp\eac\04 Finch'han Dal Vino.wav
Pre-gap length 0:00:02.00
Peak level 94.2 %
Extraction speed 6.3 X
Track quality 100.0 %
Test CRC 9AE9DC65
Copy CRC 9AE9DC65
Copy OK
Track 5
Filename C:\Temp\eac\05 Mi Par D'udir Ancora.wav
Pre-gap length 0:00:02.00
Peak level 92.2 %
Extraction speed 6.7 X
Track quality 100.0 %
Test CRC BD35EB57
Copy CRC BD35EB57
Copy OK
Track 6
Filename C:\Temp\eac\06 Habanera.wav
Pre-gap length 0:00:02.00
Peak level 94.4 %
Extraction speed 7.1 X
Track quality 100.0 %
Test CRC 55098577
Copy CRC 55098577
Copy OK
Track 7
Filename C:\Temp\eac\07 Eri Tu Che Macchiavi Quell'anima.wav
Pre-gap length 0:00:02.00
Peak level 99.8 %
Extraction speed 6.7 X
Track quality 99.9 %
Test CRC 25404E9C
Copy CRC 25404E9C
Copy OK
Track 8
Filename C:\Temp\eac\08 Papagena & Papageno Duet.wav
Pre-gap length 0:00:02.00
Peak level 99.8 %
Extraction speed 7.5 X
Track quality 100.0 %
Test CRC 1D130790
Copy CRC 1D130790
Copy OK
Track 9
Filename C:\Temp\eac\09 Pourquoi Me Reveiller.wav
Pre-gap length 0:00:02.00
Peak level 80.2 %
Extraction speed 7.5 X
Track quality 99.9 %
Test CRC 00BC385C
Copy CRC 00BC385C
Copy OK
Track 10
Filename C:\Temp\eac\10 Quando M'en Vo.wav
Pre-gap length 0:00:02.00
Peak level 99.8 %
Extraction speed 8.1 X
Track quality 100.0 %
Test CRC 6F393A8E
Copy CRC 6F393A8E
Copy OK
Track 11
Filename C:\Temp\eac\11 Der Holle Rache.wav
Pre-gap length 0:00:02.00
Peak level 92.8 %
Extraction speed 9.1 X
Track quality 100.0 %
Test CRC 3572A5E0
Copy CRC 3572A5E0
Copy OK
Track 12
Filename C:\Temp\eac\12 Flower Duet.wav
Pre-gap length 0:00:02.00
Peak level 99.8 %
Extraction speed 9.0 X
Track quality 100.0 %
Test CRC CCFBB524
Copy CRC CCFBB524
Copy OK
No errors occurred
End of status report
==== Log checksum 8A6003F0BC5761FCAF1A249D27B5975C91489FF794F3FD28190C4EF56FA62AFF ====

flac.cue

REM GENRE Electronic
REM DATE 2011
REM DISCID A90DBD0C
REM COMMENT "ExactAudioCopy v1.0b3"
PERFORMER "Xyz"
TITLE "Elektronine operos fantazija XYZ"
FILE "01 Una Furtiva Lagrima.flac" WAVE
TRACK 01 AUDIO
TITLE "Una Furtiva Lagrima"
PERFORMER "Edgaras Montvidas, Mario Basanov, Vidis"
INDEX 01 00:00:00
TRACK 02 AUDIO
TITLE "Caro Nome"
PERFORMER "Lauryna Bendziunaite, Leon Somov"
INDEX 00 04:12:55
FILE "02 Caro Nome.flac" WAVE
INDEX 01 00:00:00
TRACK 03 AUDIO
TITLE "Mon Coeur S'ouvre a Ta Voix"
PERFORMER "Jovita Vaskeviciute, Few Nolder"
INDEX 00 04:45:32
FILE "03 Mon Coeur S'ouvre a Ta Voix.flac" WAVE
INDEX 01 00:00:00
TRACK 04 AUDIO
TITLE "Finch'han Dal Vino"
PERFORMER "Dainius Stumbras, Leon Somov"
INDEX 00 05:35:09
FILE "04 Finch'han Dal Vino.flac" WAVE
INDEX 01 00:00:00
TRACK 05 AUDIO
TITLE "Mi Par D'udir Ancora"
PERFORMER "Jeronimas Milius, Mario Basanov"
INDEX 00 05:07:44
FILE "05 Mi Par D'udir Ancora.flac" WAVE
INDEX 01 00:00:00
TRACK 06 AUDIO
TITLE "Habanera"
PERFORMER "Asmik Grigorian, Few Nolder"
INDEX 00 04:48:25
FILE "06 Habanera.flac" WAVE
INDEX 01 00:00:00
TRACK 07 AUDIO
TITLE "Eri Tu Che Macchiavi Quell'anima"
PERFORMER "Laimonas Pautienius, Leon Somov"
INDEX 00 04:44:72
FILE "07 Eri Tu Che Macchiavi Quell'anima.flac" WAVE
INDEX 01 00:00:00
TRACK 08 AUDIO
TITLE "Papagena & Papageno Duet"
PERFORMER "Joana Gedmintaite, Rafailas Karpis, Mario Basanov, Vidis"
INDEX 00 04:44:38
FILE "08 Papagena & Papageno Duet.flac" WAVE
INDEX 01 00:00:00
TRACK 09 AUDIO
TITLE "Pourquoi Me Reveiller"
PERFORMER "Edgaras Montvidas, Few Nolder"
INDEX 00 03:36:73
FILE "09 Pourquoi Me Reveiller.flac" WAVE
INDEX 01 00:00:00
TRACK 10 AUDIO
TITLE "Quando M'en Vo"
PERFORMER "Asmik Grigorian, Mario Basanov, Vidis"
INDEX 00 05:42:48
FILE "10 Quando M'en Vo.flac" WAVE
INDEX 01 00:00:00
TRACK 11 AUDIO
TITLE "Der Holle Rache"
PERFORMER "Joana Gedmintaite, Mario Basanov, Vidis"
INDEX 00 03:45:74
FILE "11 Der Holle Rache.flac" WAVE
INDEX 01 00:00:00
TRACK 12 AUDIO
TITLE "Flower Duet"
PERFORMER "Asmik Grigorian, Lauryna Bendziunaite, Leon Somov"
INDEX 00 06:47:33
FILE "12 Flower Duet.flac" WAVE
INDEX 01 00:00:00
http://www.youtube.com/watch?v=eAQlM4Ws7Wk



Показать сообщения:    

Текущее время: 05-Дек 01:20

Часовой пояс: UTC + 3


Вы не можете начинать темы
Вы не можете отвечать на сообщения
Вы не можете редактировать свои сообщения
Вы не можете удалять свои сообщения
Вы не можете голосовать в опросах
Вы не можете прикреплять файлы к сообщениям
Вы не можете скачивать файлы