(New Classical, Contemporary Jazz, Classical Vocal) Anne-Lise Berntsen, Bendik Hofseth, Helge Iberg - Ludo - Entartete kunst - 1997, APE (image+.cue), lossless


 

[Цитировать]

Anne-Lise Berntsen, Bendik Hofseth, Helge Iberg - Ludo - Entartete kunst
Жанр: New Classical, Contemporary Jazz, Classical Vocal
Год выпуска диска: 1997
Производитель диска: Norway (Kirkelig Kulturverksted – FXCD 192)
Аудио кодек: APE
Тип рипа: image+.cue
Битрейт аудио: lossless
Продолжительность: 46:22
Треклист:
1 Pro Logo 6:03
2 Mondestrunken / An Even Whiter Shade Of Pale 4:02
3 Lascia Ch'io Pianga 5:00
4 Divinités Du Styx 3:49
5 Ich Atmet' Einen Linden Duft 3:20
6 Der Kranke Mond 2:57
7 Dido's Farewell 4:01
8 Rosa 4:58
9 Im Wunderschönen Monat Mai 2:15
10 Die Nachtigal 2:18
11 An Den Kleinen Radioapparat 3:16
12 Epi Logo 0:35
13 O Mio Babbino Caro 3:44
Keyboards – Helge Iberg
Saxophone – Bendik Hofseth
Vocals – Anne-Lise Berntsen
Доп. информация: Файл получен из японской сети

сue

REM DATE 1997
REM COMMENT Kirkelig Kulturverksted, FXCD 192
PERFORMER "Anne-Lise Berntsen, Bendik Hofseth, Helge Iberg"
TITLE "Ludo - Entartete kunst"
FILE "CDImage.ape" WAVE
TRACK 01 AUDIO
TITLE "Pro Logo"
INDEX 01 00:00:00
TRACK 02 AUDIO
TITLE "Mondestrunken, An ever whiter shade of pale"
INDEX 01 06:03:07
TRACK 03 AUDIO
TITLE "Lascia ch'io pianga"
INDEX 01 10:05:10
TRACK 04 AUDIO
TITLE "Divinites du Styx"
INDEX 01 15:05:70
TRACK 05 AUDIO
TITLE "Ich atmet' einen linden Duft"
INDEX 01 18:55:02
TRACK 06 AUDIO
TITLE "Der kranke Mond"
INDEX 01 22:15:25
TRACK 07 AUDIO
TITLE "Dido's Farewell"
INDEX 01 25:12:25
TRACK 08 AUDIO
TITLE "Rosa"
INDEX 01 29:13:32
TRACK 09 AUDIO
TITLE "In wunderschoenen Monat Mai"
INDEX 01 34:11:47
TRACK 10 AUDIO
TITLE "Die Nachtigal"
INDEX 01 36:27:40
TRACK 11 AUDIO
TITLE "An der kleinen Radioapparat"
INDEX 01 38:45:55
TRACK 12 AUDIO
TITLE "Epi Logo"
INDEX 01 42:02:00
TRACK 13 AUDIO
TITLE "O mio babbino caro"
INDEX 01 42:37:45

Аудиочекер

AUDIOCHECKER v2.0 beta (build 457) - by Dester - opdester@freemail.hu
~~~~~~~~~~~~~~~~~~~~~~~~~~~~~~~~~~
-=== НЕ РЕДАКТИРУЙТЕ ЭТОТ ФАЙЛ! ===-
Путь: ...\Anne-Lise Berntsen_Bendik Hofseth_Helge Iberg - Ludo - Entartete kunst (1997)
1 -=- CDImage.ape -=- CDDA (100%)
2629300



Показать сообщения:    

Текущее время: 09-Дек 06:58

Часовой пояс: UTC + 3


Вы не можете начинать темы
Вы не можете отвечать на сообщения
Вы не можете редактировать свои сообщения
Вы не можете удалять свои сообщения
Вы не можете голосовать в опросах
Вы не можете прикреплять файлы к сообщениям
Вы не можете скачивать файлы