Торжественное открытие главной сцены Государственного академического Большого театра России (Дмитрий Черняков) [2011, Концерт, DVB]


Статистика раздачи [Обновить пиров]
Размер:  3.13 GB   |    Зарегистрирован:  8 месяцев 20 дней   |    Скачан:  0 раз

Полного источника не было: Никогда

 
   
 
 
 

[Цитировать]

Торжественное открытие главной сцены Государственного академического Большого театра России
Год выпуска: 2011
Страна: Россия
Жанр: Концерт
Продолжительность: 02:17:47
Перевод: Не требуется
Русские субтитры: нет
Режиссер: Дмитрий Черняков
Описание: После шести лет реконструкции у телезрителей канала "Россия" есть уникальная возможность увидеть Большой театр во всем великолепии в день первого представления на исторической сцене.
Торжественный гала-концерт, посвященный истории самого здания театра, поставлен специально к этому дню. Вся программа основана исключительно на произведениях русской классической музыки.
В этот вечер на сцене выступят артисты Большого театра и приглашенные звезды: Пласидо Доминго, Дмитрий Хворостовский, Натали Дессей, Виолетта Урмана.
Организация прямой трансляции тщательно готовилась несколько недель. Обеспечивать прямую трансляцию будут три ПТС (передвижных телевизионных станции), работать более тридцати камер, одна прямо под колосниками сцены. Это позволит передать атмосферу торжества, разглядеть все подробности отреставрированного убранства, насладиться выступлениями балетных и оперных звезд.
Трансляция начнется с прибытия гостей и прохода по красной дорожке. Гостями открытия станут главы иностранных государств, королевские особы, российский истеблишмент. Ожидается присутствие президента России Дмитрия Медведева.
За дирижерским пультом: главный дирижер и музыкальный руководитель Большого театра Василий Синайский
Качество: DVB
Формат: MPG
Видео кодек: MPEG2
Аудио кодек: MPEG Audio
Видео: MPEG2 Video 704x576 (4:3) 25.00fps ~ 3000kbps
Аудио: MPEG Audio 48000Hz stereo 192Kbps

MI

Общее
Полное имя : E:\Downloads\torrents\Торжественное открытие главной сцены Государственного академического Большого театра России.mpg
Формат : MPEG-PS
Размер файла : 3,13 Гбайт
Продолжительность : 2 ч. 17 м.
Режим общего битрейта : Переменный
Общий поток : 3256 Кбит/сек
Библиотека кодирования : (c) 1998-2011 Womble Multimedia, Inc. / MPEG Video Wizard DVD 5.0.1.100 (03/2011) / Sep 8 2011
Видео
Идентификатор : 224 (0xE0)
Формат : MPEG Video
Версия формата : Version 2
Профиль формата : Main@Main
Параметр BVOP формата : Да
Параметр матрицы формата : Выборочная
Параметр GOP формата : M=3, N=15
Продолжительность : 2 ч. 17 м.
Вид битрейта : Переменный
Битрейт : 2999 Кбит/сек
Максимальный битрейт : 15,0 Мбит/сек
Ширина : 704 пикселя
Высота : 576 пикселей
Соотношение сторон : 4:3
Частота кадров : 25,000 кадров/сек
Стандарт вещания : PAL
Цветовое пространство : YUV
Субдискретизация насыщенности : 4:2:0
Битовая глубина : 8 бит
Тип развёртки : Прогрессивная
Порядок развёртки : Верхнее поле первое
Метод сжатия : С потерями
Бит/(Пиксели*Кадры) : 0.296
Размер потока : 2,89 Гбайт (92%)
Библиотека кодирования : (c) 1998-2011 Womble Multimedia, Inc. / MPEG Video Wizard DVD 5.0.1.100 (03/2011) / Sep 8 2011
Аудио
Идентификатор : 192 (0xC0)
Формат : MPEG Audio
Версия формата : Version 1
Профиль формата : Layer 2
Продолжительность : 2 ч. 17 м.
Вид битрейта : Постоянный
Битрейт : 192 Кбит/сек
Каналы : 2 канала
Частота : 48,0 КГц
Метод сжатия : С потерями
Задержка видео : -80 мс.
Размер потока : 189 Мбайт (6%)
Меню

Скринлист

Скриншоты

[teatrix.ru].t16093.torrent 
Торрент: Зарегистрирован [ 2016-03-15 12:07 ] · FAFC1EEE5E67E22A7175FFB97991944F0710F163

Скачать .torrent

Скачать

16 KB

Статус: проверено
Скачан: 0 раз
Размер: 3.13 GB
terms.php



Быстрый ответ

Имя:

      
Для отправки сообщений необходимо включить JavaScript
Показать сообщения:    

Текущее время: 04-Дек 23:21

Часовой пояс: UTC + 3


Вы можете начинать темы
Вы можете отвечать на сообщения
Вы не можете редактировать свои сообщения
Вы не можете удалять свои сообщения
Вы не можете голосовать в опросах
Вы не можете прикреплять файлы к сообщениям
Вы можете скачивать файлы