Третьяковка - дар бесценный! Картине - жить! ОСТ (Григорий Чакрян) [2004, Документальный цикл, DVB]


Статистика раздачи [Обновить пиров]
Размер:  375 MB   |    Зарегистрирован:  8 месяцев 20 дней   |    Скачан:  0 раз

Полного источника не было: Никогда

 
   
 
 
 

[Цитировать]

Третьяковка - дар бесценный! Картине - жить! ОСТ
Год выпуска: 2004
Страна: Россия, OOO "Наш взгляд"
Жанр: Документальный цикл
Продолжительность: 00:25:26
Перевод: Не требуется
Русские субтитры: нет
Режиссер: Григорий Чакрян
Описание: Картина, как образ нового времени. ОСТ (Объединение станковистов) и Александр Дейнека.
Доп. информация: Текст читал: Виктор Татарский

MI

General
ID : 1 (0x1)
Complete name : C:Третьяковка - дар бесценный! Картине - жить! ОСТ.2004_DVB_by_dean10.ts
Format : MPEG-TS
File size : 375 MiB
Duration : 25mn 26s
Overall bit rate : 2 062 Kbps
Video
ID : 251 (0xFB)
Menu ID : 1 (0x1)
Format : AVC
Format/Info : Advanced Video Codec
Format profile : Main@L3.0
Format settings, CABAC : Yes
Format settings, ReFrames : 4 frames
Codec ID : 27
Duration : 25mn 26s
Bit rate : 1 766 Kbps
Width : 720 pixels
Height : 576 pixels
Display aspect ratio : 4:3
Frame rate : 25.000 fps
Standard : Component
Color space : YUV
Chroma subsampling : 4:2:0
Bit depth : 8 bits
Scan type : Interlaced
Scan order : Top Field First
Bits/(Pixel*Frame) : 0.170
Stream size : 322 MiB (86%)
Color primaries : BT.470-6 System B, BT.470-6 System G, BT.601-6 625, BT.1358 625, BT.1700 625 PAL, BT.1700 625 SECAM
Transfer characteristics : BT.470-6 System B, BT.470-6 System G
Matrix coefficients : BT.470-6 System B, BT.470-6 System G, BT.601-6 625, BT.1358 625, BT.1700 625 PAL, BT.1700 625 SECAM, IEC 61966-2-4 601
Audio
ID : 252 (0xFC)
Menu ID : 1 (0x1)
Format : MPEG Audio
Format version : Version 1
Format profile : Layer 2
Codec ID : 3
Duration : 25mn 26s
Bit rate mode : Constant
Bit rate : 192 Kbps
Channel(s) : 2 channels
Sampling rate : 48.0 KHz
Compression mode : Lossy
Stream size : 34.9 MiB (9%)
Language : Russian
Качество: DVB
Формат: TS
Видео кодек: H.264
Аудио кодек: MPEG1
Видео: MPEG-4 AVC, 720x576, (4:3), kbps
Аудио: Russian: 48 kHz, MPEG Audio, 2 ch, 1 766 kbps

Скриншоты

[teatrix.ru].t16101.torrent 
Торрент: Зарегистрирован [ 2016-03-15 12:07 ] · 638F364C225D04B3D439FE2ED34117AC3273C34C

Скачать .torrent

Скачать

15 KB

Статус: проверено
Скачан: 0 раз
Размер: 375 MB
terms.php



Быстрый ответ

Имя:

      
Для отправки сообщений необходимо включить JavaScript
Показать сообщения:    

Текущее время: 05-Дек 03:30

Часовой пояс: UTC + 3


Вы можете начинать темы
Вы можете отвечать на сообщения
Вы не можете редактировать свои сообщения
Вы не можете удалять свои сообщения
Вы не можете голосовать в опросах
Вы не можете прикреплять файлы к сообщениям
Вы можете скачивать файлы