Джастин Бибер: Никогда не говори никогда / Justin Bieber: Never Say Never (Джон М. Чу / Jon Chu) [2011, США, документальный, музыка, HDRip] DVO


Статистика раздачи [Обновить пиров]
Размер:  1.45 GB   |    Зарегистрирован:  8 месяцев 24 дня   |    Скачан:  0 раз

Полного источника не было: Никогда

 
   
 
 
 

[Цитировать]

Джастин Бибер: Никогда не говори никогда / Justin Bieber: Never Say Never-«Мечты сбываются...»- Год выпуска: 2011
Премьера: 11 февраля 2011
Страна:
Жанр: документальный, музыка
Продолжительность: 01:45:08-Перевод: Любительский (двухголосый, закадровый) [Emnily, Синхито]
Cубтитры: Нет-Режиссёр: Джон М. Чу / Jon Chu
В ролях: Джастин Бибер, Boys II Men, Майли Сайрус, Шон Кингстон, Лудакрис, Джейден Смит, Ашер, Дайан Дэйл, Брюс Дэйл, Райан Гуд-Описание: Фильм рассказывает о том, как начинал свою карьеру Джастин Бибер. Молодой парень из простой семьи начинает обретать славу, выложив видеоролик в интернет…-Качество: HDRip - Рип с BDRip 720p
Формат: AVI
Видео кодек: XviD
Аудио кодек: AC3
Видео: 688x384 (1.79:1), 23.976 fps, XviD build 50 ~1521 kbps avg, 0.24 bit/pixel
Аудио - : 48 kHz, AC3 Dolby Digital, 3/2 (L,C,R,l,r) + LFE ch, ~448 kbps-Трейлер к фильму- -

MediaInfo

General
Complete name                    : D:\Downloads\Justin.Bieber.Never.Say.Never.2011.HDRip.XviD-denashekkk.avi
Format                           : AVI
Format/Info                      : Audio Video Interleave
File size                        : 1.45 GiB
Duration                         : 1h 45mn
Overall bit rate                 : 1 979 Kbps
Writing application              : VirtualDubMod 1.5.10.3 | www.virtualdub-fr.org || (build 2550/release)
Writing library                  : VirtualDubMod build 2550/release
[br]
Video
ID                               : 0
Format                           : MPEG-4 Visual
Format profile                   : Advanced Simple@L5
Format settings, BVOP            : 1
Format settings, QPel            : No
Format settings, GMC             : No warppoints
Format settings, Matrix          : Custom
Codec ID                         : XVID
Codec ID/Hint                    : XviD
Duration                         : 1h 45mn
Bit rate                         : 1 522 Kbps
Width                            : 688 pixels
Height                           : 384 pixels
Display aspect ratio             : 16:9
Frame rate                       : 23.976 fps
Color space                      : YUV
Chroma subsampling               : 4:2:0
Bit depth                        : 8 bits
Scan type                        : Progressive
Compression mode                 : Lossy
Bits/(Pixel*Frame)               : 0.240
Stream size                      : 1.12 GiB (77%)
Writing library                  : XviD 1.2.1 (UTC 2008-12-04)
[br]
Audio
ID                               : 1
Format                           : AC-3
Format/Info                      : Audio Coding 3
Mode extension                   : CM (complete main)
Codec ID                         : 2000
Duration                         : 1h 45mn
Bit rate mode                    : Constant
Bit rate                         : 448 Kbps
Channel(s)                       : 6 channels
Channel positions                : Front: L C R, Side: L R, LFE
Sampling rate                    : 48.0 KHz
Bit depth                        : 16 bits
Compression mode                 : Lossy
Stream size                      : 337 MiB (23%)
Alignment                        : Split accross interleaves
Interleave, duration             : 42 ms (1.00 video frame)
Interleave, preload duration     : 500 ms

Скриншоты


[teatrix.ru].t16102.torrent 
Торрент: Зарегистрирован [ 2016-03-15 12:07 ] · 1C0926F97E95B238FBAB4C58C3EA44366A1A67E4

Скачать .torrent

Скачать

15 KB

Статус: проверено
Скачан: 0 раз
Размер: 1.45 GB
terms.php



Быстрый ответ

Имя:

      
Для отправки сообщений необходимо включить JavaScript
Показать сообщения:    

Текущее время: 08-Дек 12:58

Часовой пояс: UTC + 3


Вы можете начинать темы
Вы можете отвечать на сообщения
Вы не можете редактировать свои сообщения
Вы не можете удалять свои сообщения
Вы не можете голосовать в опросах
Вы не можете прикреплять файлы к сообщениям
Вы можете скачивать файлы