Джастин Бибер: Никогда не говори никогда / Justin Bieber: Never Say Never (Джон М. Чу / Jon Chu) [2011, США, документальный, музыка, HDRip] DVO


Статистика раздачи [Обновить пиров]
Размер:  745 MB   |    Зарегистрирован:  8 месяцев 22 дня   |    Скачан:  0 раз

Полного источника не было: Никогда

 
   
 
 
 

[Цитировать]

Джастин Бибер: Никогда не говори никогда / Justin Bieber: Never Say Never-«Мечты сбываются...»- Год выпуска: 2011
Премьера: 11 февраля 2011
Страна:
Жанр: документальный, музыка
Продолжительность: 01:45:08-Перевод: Любительский (двухголосый, закадровый) [Emnily, Синхито]
Cубтитры: Нет-Режиссёр: Джон М. Чу / Jon Chu
В ролях: Джастин Бибер, Boys II Men, Майли Сайрус, Шон Кингстон, Лудакрис, Джейден Смит, Ашер, Дайан Дэйл, Брюс Дэйл, Райан Гуд-Описание: Фильм рассказывает о том, как начинал свою карьеру Джастин Бибер. Молодой парень из простой семьи начинает обретать славу, выложив видеоролик в интернет…-Качество: HDRip - Рип с BDRip 720p
Формат: AVI
Видео кодек: XviD
Аудио кодек: AC3
Видео: 656x368 (1.78:1), 23.976 fps, XviD build 50 ~853 kbps avg, 0.15 bit/pixel
Аудио - : 48 kHz, MPEG Layer 3, 2 ch, ~128.00 kbps avg-Трейлер к фильму- -

MediaInfo

General
Complete name                    : D:\Downloads\Justin.Bieber.Never.Say.Never.2011.745mb.HDRip.XviD-denashekkk.avi
Format                           : AVI
Format/Info                      : Audio Video Interleave
File size                        : 745 MiB
Duration                         : 1h 45mn
Overall bit rate                 : 991 Kbps
Writing application              : VirtualDubMod 1.5.10.3 | www.virtualdub-fr.org || (build 2550/release)
Writing library                  : VirtualDubMod build 2550/release
[br]
Video
ID                               : 0
Format                           : MPEG-4 Visual
Format profile                   : Advanced Simple@L5
Format settings, BVOP            : 1
Format settings, QPel            : No
Format settings, GMC             : No warppoints
Format settings, Matrix          : Custom
Codec ID                         : XVID
Codec ID/Hint                    : XviD
Duration                         : 1h 45mn
Bit rate                         : 854 Kbps
Width                            : 656 pixels
Height                           : 368 pixels
Display aspect ratio             : 16:9
Frame rate                       : 23.976 fps
Color space                      : YUV
Chroma subsampling               : 4:2:0
Bit depth                        : 8 bits
Scan type                        : Progressive
Compression mode                 : Lossy
Bits/(Pixel*Frame)               : 0.148
Stream size                      : 642 MiB (86%)
Writing library                  : XviD 1.2.1 (UTC 2008-12-04)
[br]
Audio
ID                               : 1
Format                           : MPEG Audio
Format version                   : Version 1
Format profile                   : Layer 3
Codec ID                         : 55
Codec ID/Hint                    : MP3
Duration                         : 1h 45mn
Bit rate mode                    : Constant
Bit rate                         : 128 Kbps
Channel(s)                       : 2 channels
Sampling rate                    : 48.0 KHz
Compression mode                 : Lossy
Stream size                      : 96.3 MiB (13%)
Alignment                        : Aligned on interleaves
Interleave, duration             : 42 ms (1.00 video frame)
Interleave, preload duration     : 504 ms
Writing library                  : LAME3.98r
Encoding settings                : -m s -V 4 -q 2 -lowpass 17 -b 128

Скриншоты

[teatrix.ru].t16103.torrent 
Торрент: Зарегистрирован [ 2016-03-15 12:07 ] · ACD5D35DEA9880EF5E0B1B706B865B9FC3E9CBB6

Скачать .torrent

Скачать

15 KB

Статус: проверено
Скачан: 0 раз
Размер: 745 MB
terms.php



Быстрый ответ

Имя:

      
Для отправки сообщений необходимо включить JavaScript
Показать сообщения:    

Текущее время: 06-Дек 13:16

Часовой пояс: UTC + 3


Вы можете начинать темы
Вы можете отвечать на сообщения
Вы не можете редактировать свои сообщения
Вы не можете удалять свои сообщения
Вы не можете голосовать в опросах
Вы не можете прикреплять файлы к сообщениям
Вы можете скачивать файлы