История произведений искусства. Женщина, сидящая на пляже. Пабло Пикассо / Enquete D'art. Femme Assise sur la Plage. de Pablo Picasso (Lucile Bellanger) [2008, Документальный цикл, DVB]


Статистика раздачи [Обновить пиров]
Размер:  272 MB   |    Зарегистрирован:  8 месяцев 24 дня   |    Скачан:  0 раз

Полного источника не было: Никогда

 
   
 
 
 

[Цитировать]

История произведений искусства. Женщина, сидящая на пляже. Пабло Пикассо / Enquete D'art. Femme Assise sur la Plage. de Pablo Picasso
Год выпуска: 2008
Страна: Франция, Electric Production
Жанр: Документальный цикл
Продолжительность: 00:26:01
Перевод: Профессиональный (двухголосый)
Русские субтитры: нет
Релиз: dean10
Режиссер: Lucile Bellanger
Описание: "Женщина, сидящая на пляже" - одна из главных жемчужин Музея изобразительных искусств Лиона. На первый взгляд фигура кажется гротескной и едва ли не уродливой. Но если присмотреться, то можно увидеть нежность, исходящую от этого произведения. Поражает исключительная свобода, с которой художник относится к изображению человеческого тела.
Доп. информация:

MI

General
ID : 1 (0x1)
Complete name : C:История произведений искусства. Женщина, сидящая на пляже. Пабло Пикассо.2008_DVB_by_dean10.ts
Format : MPEG-TS
File size : 272 MiB
Duration : 26mn 1s
Overall bit rate : 1 462 Kbps
Video
ID : 251 (0xFB)
Menu ID : 1 (0x1)
Format : AVC
Format/Info : Advanced Video Codec
Format profile : Main@L3.0
Format settings, CABAC : Yes
Format settings, ReFrames : 4 frames
Codec ID : 27
Duration : 26mn 1s
Bit rate : 1 196 Kbps
Width : 720 pixels
Height : 576 pixels
Display aspect ratio : 4:3
Frame rate : 25.000 fps
Standard : Component
Color space : YUV
Chroma subsampling : 4:2:0
Bit depth : 8 bits
Scan type : Interlaced
Scan order : Top Field First
Bits/(Pixel*Frame) : 0.115
Stream size : 223 MiB (82%)
Color primaries : BT.470-6 System B, BT.470-6 System G, BT.601-6 625, BT.1358 625, BT.1700 625 PAL, BT.1700 625 SECAM
Transfer characteristics : BT.470-6 System B, BT.470-6 System G
Matrix coefficients : BT.470-6 System B, BT.470-6 System G, BT.601-6 625, BT.1358 625, BT.1700 625 PAL, BT.1700 625 SECAM, IEC 61966-2-4 601
Audio
ID : 252 (0xFC)
Menu ID : 1 (0x1)
Format : MPEG Audio
Format version : Version 1
Format profile : Layer 2
Codec ID : 3
Duration : 26mn 1s
Bit rate mode : Constant
Bit rate : 192 Kbps
Channel(s) : 2 channels
Sampling rate : 48.0 KHz
Compression mode : Lossy
Stream size : 35.7 MiB (13%)
Language : Russian
Качество: DVB
Формат: TS
Видео кодек: H.264
Аудио кодек: MPEG1
Видео: MPEG-4 AVC, 720x576, (4:3), 25 fps, 1 196 kbps
Аудио: Russian: 48 kHz, MPEG Audio, 2 ch, 192 kbps

Скриншоты

[teatrix.ru].t16118.torrent 
Торрент: Зарегистрирован [ 2016-03-15 12:06 ] · 079E6AE596359D3EAD6A7AEACAD5A547EB13442F

Скачать .torrent

Скачать

11 KB

Статус: проверено
Скачан: 0 раз
Размер: 272 MB
terms.php



Быстрый ответ

Имя:

      
Для отправки сообщений необходимо включить JavaScript
Показать сообщения:    

Текущее время: 08-Дек 19:09

Часовой пояс: UTC + 3


Вы можете начинать темы
Вы можете отвечать на сообщения
Вы не можете редактировать свои сообщения
Вы не можете удалять свои сообщения
Вы не можете голосовать в опросах
Вы не можете прикреплять файлы к сообщениям
Вы можете скачивать файлы