Искусство Испании. Мистический север (Серии: 01-03 из 3) / Art of Spain. The Mystical North (Марк Бейтс) [2008, Документальный цикл, DVB]


Статистика раздачи [Обновить пиров]
Размер:  1.83 GB   |    Зарегистрирован:  8 месяцев 25 дней   |    Скачан:  0 раз

Полного источника не было: Никогда

 
   
 
 
 

[Цитировать]

Искусство Испании. Мистический север (Серии: 01-03 из 3) / Art of Spain. The Mystical North
Год выпуска: 2008
Страна: Великобритания, BBC
Жанр: Документальный цикл
Продолжительность: 00:49:51 серия
Перевод: Профессиональный (одноголосый, закадровый)
Русские субтитры: нет
Режиссер: Марк Бейтс
Описание:

01. Мавританский юг

На протяжении более семисот лет Испания находилась под властью мусульман, причём сердце её билось на юге. Это было уникальное место встречи востока и запада, и в результате этой встречи произошёл взрыв - мусульманская Испания превратилась в одну из величайших цивилизаций в мире, которая сформировала облик самой Испании и остальной Европы. О том, как Испания дала миру самое поразительное и оригинальное искусство из всех когда-либо существовавших в мире.

02. Мрачное сердце

Равнины Кастилии - суровое сердце центральной Испании. В шестнадцатом и семнадцатом веках эти бесплодные пейзажи дали жизнь некоторым из самых драматичных направлений в истории искусства. От мистического мира Эль Греко до мрачных образов Сурбарана и Риберы. Это искусство вдохновлялось пламенным католицизмом и присущим ему страстным желанием соприкоснуться с Богом. Религия переплеталась с насилием, инквизиция боролась за удержание власти. Как в такую суровую, жестокую эпоху могли появиться величайшие произведения искусства?

03. Мистический север

Когда приезжаешь на север Испании, кажется, что находишься совсем в другой стране. Многие из живущих здесь даже говорят на другом языке. В XX веке это ощущение непохожести вылилось в насилие, революцию и войну. Но из этого противоборства выросли одни из самых потрясающих произведений современного искусства в мире: наивные, живые и зачастую жестокие. История северной Испании определила всю историю современного искусства.
Доп. информация:
Автор сценария и ведущий Эндрю Грэм-Диксон

MI

General
ID : 1 (0x1)
Complete name : C:01. Искусство Испании. Мавританский юг.2008_DVB_by_dean10.ts
Format : MPEG-TS
File size : 676 MiB
Duration : 49mn 51s
Overall bit rate : 1 897 Kbps
Video
ID : 251 (0xFB)
Menu ID : 1 (0x1)
Format : AVC
Format/Info : Advanced Video Codec
Format profile : Main@L3.0
Format settings, CABAC : Yes
Format settings, ReFrames : 4 frames
Codec ID : 27
Duration : 49mn 51s
Bit rate : 1 609 Kbps
Width : 720 pixels
Height : 576 pixels
Display aspect ratio : 4:3
Frame rate : 25.000 fps
Standard : Component
Color space : YUV
Chroma subsampling : 4:2:0
Bit depth : 8 bits
Scan type : Interlaced
Scan order : Top Field First
Bits/(Pixel*Frame) : 0.155
Stream size : 574 MiB (85%)
Color primaries : BT.470-6 System B, BT.470-6 System G, BT.601-6 625, BT.1358 625, BT.1700 625 PAL, BT.1700 625 SECAM
Transfer characteristics : BT.470-6 System B, BT.470-6 System G
Matrix coefficients : BT.470-6 System B, BT.470-6 System G, BT.601-6 625, BT.1358 625, BT.1700 625 PAL, BT.1700 625 SECAM, IEC 61966-2-4 601
Audio
ID : 252 (0xFC)
Menu ID : 1 (0x1)
Format : MPEG Audio
Format version : Version 1
Format profile : Layer 2
Codec ID : 3
Duration : 49mn 51s
Bit rate mode : Constant
Bit rate : 192 Kbps
Channel(s) : 2 channels
Sampling rate : 48.0 KHz
Compression mode : Lossy
Stream size : 68.5 MiB (10%)
Language : Russian
Релиз: dean10
Качество: DVB
Формат: TS
Видео кодек: H.264
Аудио кодек: MPEG1
Видео: MPEG-4 AVC, 720x576, (4:3), 25 fps, 1 609 kbps
Аудио: Russian: 48 kHz, MPEG Audio, 2 ch, 192 kbps
Добавил: Искусство Испании <Мистический север> , перезалейте торрент-файл

Как правильно подключиться к раздаче ПОСЛЕ ОБНОВЛЕНИЯ торрента!

Внимание! Раздача ведётся путём добавления новых серий; при каждом добавлении создётся новый торрент. Чтобы начать докачку новой серии, пользователям необходимо сделать следующее:
(1) остановить скачивание,
(2) удалить старый торрент у себя из клиента (старые серии удалять не надо),
(3) скачать новый торрент и запустить его у себя в клиенте вместо старого, при этом указать клиенту путь в старую папку куда и должно происходить скачивание новых серий.
Ваш клиент при этом должен произвести хеширование (проверку) старой папки (если не производит сам - помогите ему сделать это), и будет докачивать только те серии которых у вас
ещё нет. Старые серии при этом не удаляются, а продолжают раздаваться!

Скриншоты

[teatrix.ru].t16120.torrent 
Торрент: Зарегистрирован [ 2016-03-15 12:06 ] · F289E70A24422C14C29AD5B0577176E846FF7885

Скачать .torrent

Скачать

19 KB

Статус: проверено
Скачан: 0 раз
Размер: 1.83 GB
terms.php



Быстрый ответ

Имя:

      
Для отправки сообщений необходимо включить JavaScript
Показать сообщения:    

Текущее время: 09-Дек 14:38

Часовой пояс: UTC + 3


Вы можете начинать темы
Вы можете отвечать на сообщения
Вы не можете редактировать свои сообщения
Вы не можете удалять свои сообщения
Вы не можете голосовать в опросах
Вы не можете прикреплять файлы к сообщениям
Вы можете скачивать файлы