(Classical) Rondo Veneziano - Concerto per Mozart - 1990, FLAC (image+.cue), lossless


 

[Цитировать]

Rondo Veneziano / Concerto per Mozart
Жанр: Classical
Год выпуска диска: 1990
Производитель диска: Германия
Аудио кодек: FLAC
Тип рипа: image+.cue
Битрейт аудио: lossless
Продолжительность: 46:56
Треклист:
01. Cosi Fan Tutte
02. Don Giovanni
03. Sonata (K.545)
04. Serenata (Part 1)
05. Serenata (Part 2)
06. Jupiter (Part 1)
07. Jupiter (Part 2)
08. Linz Symphonie
09. Die Zauberflote (Part 1)
10. Die Zauberflote (Part 2)

Лог создания рипа

Exact Audio Copy V1.0 beta 3 from 29. August 2011
EAC extraction logfile from 4. December 2011, 18:54
Rondó Veneziano / Concerto per Mozart
Used drive : TSSTcorpCD/DVDW TS-L632D Adapter: 1 ID: 0
Read mode : Secure
Utilize accurate stream : Yes
Defeat audio cache : Yes
Make use of C2 pointers : No
Read offset correction : 6
Overread into Lead-In and Lead-Out : No
Fill up missing offset samples with silence : Yes
Delete leading and trailing silent blocks : No
Null samples used in CRC calculations : Yes
Used interface : Native Win32 interface for Win NT & 2000
Used output format : User Defined Encoder
Selected bitrate : 768 kBit/s
Quality : High
Add ID3 tag : No
Command line compressor : C:\Program Files\Exact Audio Copy\FLAC\FLAC.EXE
Additional command line options : -6 -V -T "ARTIST=%artist%" -T "TITLE=%title%" -T "ALBUM=%albumtitle%" -T "DATE=%year%" -T "TRACKNUMBER=%tracknr%" -T "GENRE=%genre%" -T "COMMENT=%comment%" -T "BAND=%albuminterpret%" -T "ALBUMARTIST=%albuminterpret%" -T "COMPOSER=%composer%" %haslyrics%--tag-from-file=LYRICS="%lyricsfile%"%haslyrics% -T "DISCNUMBER=%cdnumber%" -T "TOTALDISCS=%totalcds%" -T "TOTALTRACKS=%numtracks%" %hascover%--picture="%coverfile%"%hascover% %source% -o %dest%
TOC of the extracted CD
Track | Start | Length | Start sector | End sector
---------------------------------------------------------
1 | 0:00.33 | 4:11.25 | 33 | 18882
2 | 4:11.58 | 7:25.50 | 18883 | 52307
3 | 11:37.33 | 2:25.00 | 52308 | 63182
4 | 14:02.33 | 3:59.17 | 63183 | 81124
5 | 18:01.50 | 5:29.58 | 81125 | 105857
6 | 23:31.33 | 4:51.45 | 105858 | 127727
7 | 28:23.03 | 7:24.30 | 127728 | 161057
8 | 35:47.33 | 3:14.00 | 161058 | 175607
9 | 39:01.33 | 3:56.07 | 175608 | 193314
10 | 42:57.40 | 3:59.18 | 193315 | 211257
Range status and errors
Selected range
Filename D:\Downloads\Rondo Veneziano - Mozart\Rondó Veneziano - Concerto per Mozart.wav
Peak level 100.0 %
Extraction speed 3.7 X
Range quality 100.0 %
Test CRC 23CA6655
Copy CRC 23CA6655
Copy OK
No errors occurred
AccurateRip summary
Track 1 accurately ripped (confidence 2) [28769B66] (AR v2)
Track 2 accurately ripped (confidence 2) [31B24831] (AR v2)
Track 3 accurately ripped (confidence 2) [7089B3CB] (AR v2)
Track 4 accurately ripped (confidence 2) [F0572C9F] (AR v2)
Track 5 accurately ripped (confidence 2) [290FDC8E] (AR v2)
Track 6 accurately ripped (confidence 2) [5B197316] (AR v2)
Track 7 accurately ripped (confidence 2) [D141FA83] (AR v2)
Track 8 accurately ripped (confidence 2) [562F2783] (AR v2)
Track 9 accurately ripped (confidence 2) [FC0239C6] (AR v2)
Track 10 accurately ripped (confidence 2) [31B359CD] (AR v2)
All tracks accurately ripped
End of status report
==== Log checksum 555B0853D4949EA23D38CAC554C24B9C4A12C0A717D7718028DA7165417A0496 ====



Показать сообщения:    

Текущее время: 10-Дек 13:51

Часовой пояс: UTC + 3


Вы не можете начинать темы
Вы не можете отвечать на сообщения
Вы не можете редактировать свои сообщения
Вы не можете удалять свои сообщения
Вы не можете голосовать в опросах
Вы не можете прикреплять файлы к сообщениям
Вы не можете скачивать файлы