История произведений искусства. Венера и Адонис. Никола Пуссена / Enquete D'art. Venus et Adonis. De Poussin [2009, Документальный цикл, DVB]


Статистика раздачи [Обновить пиров]
Размер:  251 MB   |    Зарегистрирован:  8 месяцев 26 дней   |    Скачан:  0 раз

Полного источника не было: Никогда

 
   
 
 
 

[Цитировать]

История произведений искусства. Венера и Адонис. Никола Пуссена / Enquete D'art. Venus et Adonis. De Poussin
Год выпуска: 2009
Страна: Франция, Electric Production
Жанр: Документальный цикл
Продолжительность: 00:26:00
Перевод: Профессиональный (одноголосый)
Русские субтитры: нет
Описание: Пуссен - величайший художник своего времени. Его картина "Венера и Адонис" - признанный шедевр в изобразительном искусстве с запутанной историей создания.
Доп. информация:

MI

General
ID : 1 (0x1)
Complete name : C:История произведений искусства. Венера и Адонис. Никола Пуссена.ts
Format : MPEG-TS
File size : 251 MiB
Duration : 26mn 0s
Overall bit rate : 1 348 Kbps
Video
ID : 251 (0xFB)
Menu ID : 1 (0x1)
Format : AVC
Format/Info : Advanced Video Codec
Format profile : Main@L3.0
Format settings, CABAC : Yes
Format settings, ReFrames : 4 frames
Codec ID : 27
Duration : 26mn 0s
Bit rate : 1 087 Kbps
Width : 720 pixels
Height : 576 pixels
Display aspect ratio : 4:3
Frame rate : 25.000 fps
Standard : Component
Color space : YUV
Chroma subsampling : 4:2:0
Bit depth : 8 bits
Scan type : Interlaced
Scan order : Top Field First
Bits/(Pixel*Frame) : 0.105
Stream size : 202 MiB (81%)
Color primaries : BT.470-6 System B, BT.470-6 System G, BT.601-6 625, BT.1358 625, BT.1700 625 PAL, BT.1700 625 SECAM
Transfer characteristics : BT.470-6 System B, BT.470-6 System G
Matrix coefficients : BT.470-6 System B, BT.470-6 System G, BT.601-6 625, BT.1358 625, BT.1700 625 PAL, BT.1700 625 SECAM, IEC 61966-2-4 601
Audio
ID : 252 (0xFC)
Menu ID : 1 (0x1)
Format : MPEG Audio
Format version : Version 1
Format profile : Layer 2
Codec ID : 3
Duration : 26mn 0s
Bit rate mode : Constant
Bit rate : 192 Kbps
Channel(s) : 2 channels
Sampling rate : 48.0 KHz
Compression mode : Lossy
Stream size : 35.7 MiB (14%)
Language : Russian
Качество: DVB
Формат: TS
Видео кодек: H.264
Аудио кодек: MPEG1
Видео: MPEG-4 AVC, 720x576, (4:3), 25 fps, 1 087 kbps
Аудио: Russian: 48 kHz, MPEG Audio, 2 ch, 192 kbps

Скриншоты

[teatrix.ru].t16129.torrent 
Торрент: Зарегистрирован [ 2016-03-15 12:06 ] · 3227C2D891C0966BB0CF49CF08F35B95D56D5C80

Скачать .torrent

Скачать

20 KB

Статус: проверено
Скачан: 0 раз
Размер: 251 MB
terms.php



Быстрый ответ

Имя:

      
Для отправки сообщений необходимо включить JavaScript
Показать сообщения:    

Текущее время: 10-Дек 21:35

Часовой пояс: UTC + 3


Вы можете начинать темы
Вы можете отвечать на сообщения
Вы не можете редактировать свои сообщения
Вы не можете удалять свои сообщения
Вы не можете голосовать в опросах
Вы не можете прикреплять файлы к сообщениям
Вы можете скачивать файлы